<?xml version="1.0" standalone="no"?>
<!DOCTYPE svg PUBLIC "-//W3C//DTD SVG 1.1//EN" "http://www.w3.org/Graphics/SVG/1.1/DTD/svg11.dtd">
<svg xmlns="http://www.w3.org/2000/svg">
<defs >
<font id="JosefinSans" horiz-adv-x="547" ><font-face
    font-family="Josefin Sans"
    units-per-em="1000"
    panose-1="0 0 0 0 0 0 0 0 0 0"
    ascent="750"
    descent="-250"
    alphabetic="0" />
<glyph unicode=" " glyph-name="space" horiz-adv-x="325" />
<glyph unicode="!" glyph-name="exclam" horiz-adv-x="202" d="M36 765H161V199H36V765ZM102 -14Q66 -14 43 5T20 57Q20 88 43 109T102 130Q137 130 159 109T182 57Q182 25 160 6T102 -14Z" />
<glyph unicode="&quot;" glyph-name="quotedbl" horiz-adv-x="366" d="M186 734Q185 671 184 608T182 481H64V734H186ZM322 734Q321 671 320 608T318 481H200V734H322Z" />
<glyph unicode="#" glyph-name="numbersign" horiz-adv-x="582" d="M287 656Q281 611 276 568T264 479H326Q331 524 337 567T348 656H475Q469 611 464 568T452 479H536Q533 449 531 419T524 358H439Q437 342 435 326T431 292H516Q512 261 508 231T501 170H416Q412
127 407 85T396 0H270Q275 43 280 85T290 170H229Q225 127 219 85T209 0H82Q87 43 92 85T102 170H23Q27 201 31 231T38 292H117Q119 309 121 325T125 358H46Q50 388 52 418T59 479H138Q144 524 149 567T161 656H287ZM251 358Q250 342 248 326T243 292H305Q307 309
309 325T312 358H251Z" />
<glyph unicode="$" glyph-name="dollar" horiz-adv-x="567" d="M232 -68V366L272 413V804H356V385L316 324V-68H232ZM488 558Q446 581 403 596T321 611Q274 611 247 592T220 535Q220 509 240 489T293 452T361 423Q393 411 424 395T481 354T521 293T536 203Q536
147 507 99T422 22T284 -8Q242 -8 199 0T113 26T32 71L96 184Q122 165 152 151T214 128T271 120Q297 120 323 127T367 153T385 203Q385 225 371 243T332 276T278 302Q244 315 208 332T141 373T90 434T70 524Q70 588 98 635T179 709T299 740Q388 740 443 719T543
669L488 558Z" />
<glyph unicode="%" glyph-name="percent" horiz-adv-x="810" d="M196 294Q141 294 105 319T52 387T35 484Q35 538 52 580T105 648T196 673Q251 673 286 648T339 581T357 484Q357 430 340 387T287 319T196 294ZM157 484Q157 443 165 418T196 392Q219 392 226 417T234
484Q234 531 227 552T196 574Q173 574 165 553T157 484ZM614 -28Q559 -28 523 -3T470 65T453 162Q453 216 470 258T523 326T614 351Q669 351 704 326T757 259T775 162Q775 108 758 65T705 -3T614 -28ZM575 162Q575 121 583 96T614 70Q637 70 644 95T652 162Q652
209 645 230T614 252Q591 252 583 231T575 162ZM728 673L242 -2L105 0L589 673H728Z" />
<glyph unicode="&amp;" glyph-name="ampersand" horiz-adv-x="740" d="M715 0Q701 0 674 0T617 0T568 0T547 0L223 436Q213 450 198 474T172 529T161 591Q161 631 181 670T244 736T352 763Q423 763 477 734T563 664L490 567Q459 601 431 621T375 641Q341 641 326
621T311 577Q311 563 318 547T334 517T345 498L715 0ZM310 335Q286 335 265 326T228 300T204 264T195 222Q195 191 210 168T253 131T312 118Q345 118 366 127T402 153T426 188L519 111Q492 60 437 24T292 -12Q223 -12 167 17T78 97T45 214Q45 264 67 306T128 379T213
428T309 448L310 335ZM528 448H660L536 136L431 198L528 448Z" />
<glyph unicode="&apos;" glyph-name="quotesingle" horiz-adv-x="175" d="M152 734Q151 671 150 608T148 481H28V734H152Z" />
<glyph unicode="(" glyph-name="parenleft" horiz-adv-x="408" d="M75 296Q75 398 99 487T162 645T243 760L358 707Q319 662 288 602T239 465T221 296Q221 204 239 128T288 -9T358 -114L243 -168Q201 -122 163 -53T100 105T75 296V296Z" />
<glyph unicode=")" glyph-name="parenright" horiz-adv-x="408" d="M333 296Q333 194 309 105T246 -53T165 -168L50 -115Q89 -70 120 -10T169 127T187 296Q187 388 169 464T120 601T50 706L165 760Q208 715 246 645T308 487T333 296V296Z" />
<glyph unicode="*" glyph-name="asterisk" horiz-adv-x="335" d="M128 504Q113 495 98 487T67 469Q57 487 47 505T25 542Q41 550 56 559T87 576Q72 585 57 594T26 613Q36 630 45 647T65 682Q81 673 96 664T128 645V720H212Q212 701 212 683T211 645Q227 654 243
663T275 681Q285 664 295 647T315 612Q299 603 283 594T250 575V575Q266 566 281 557T313 539Q303 521 293 503T271 466Q255 475 240 484T209 503Q209 486 209 469T208 434H128V504Z" />
<glyph unicode="+" glyph-name="plus" horiz-adv-x="554" d="M208 419H335V295H455V174H335V52H208V174H88V295H208V419Z" />
<glyph unicode="," glyph-name="comma" horiz-adv-x="205" d="M188 88Q166 35 144 -17T100 -122H-12Q8 -69 27 -17T67 88H188Z" />
<glyph unicode="-" glyph-name="hyphen" horiz-adv-x="306" d="M54 290H242V168H54V290Z" />
<glyph unicode="." glyph-name="period" horiz-adv-x="172" d="M15 72Q15 103 37 124T87 145Q112 145 134 124T157 72Q157 39 135 20T87 0Q60 0 38 19T15 72V72Z" />
<glyph unicode="/" glyph-name="slash" horiz-adv-x="421" d="M427 751Q356 558 285 366T143 -19H17Q88 174 159 366T301 751H427Z" />
<glyph unicode="0" glyph-name="zero" horiz-adv-x="628" d="M314 -1Q257 -1 207 19T118 80T57 185T35 335Q35 431 56 495T114 599T203 654T314 671Q371 671 421 651T510 590T571 485T593 335Q593 246 571 182T510 78T421 18T314 -1ZM313 138Q363 138 391 164T430
237T442 339Q442 394 431 437T391 505T313 531Q264 531 236 505T197 435T186 336Q186 281 197 236T236 165T313 138Z" />
<glyph unicode="1" glyph-name="one" horiz-adv-x="344" d="M50 663H249V0H103V523H50V663Z" />
<glyph unicode="2" glyph-name="two" horiz-adv-x="583" d="M54 0Q116 63 173 121T275 234T347 340T374 439Q374 460 367 477T346 506T314 524T272 531Q249 531 231 525T201 507T183 483T176 456Q176 424 186 400T215 356L126 275Q97 289 77 322T46 391T35 452Q35
507 65 557T154 639T297 671Q366 671 417 640T496 559T525 451Q525 406 511 364T473 282T417 202T353 121L287 140H533V0H54Z" />
<glyph unicode="3" glyph-name="three" horiz-adv-x="527" d="M456 663L306 375L227 418Q237 422 248 424T270 426Q305 427 340 418T403 386T449 323T467 221Q467 149 434 98T346 19T229 -8Q180 -8 126 12T40 67L114 187Q129 168 160 150T225 132Q247 132 268
143T303 176T317 230Q317 274 293 300T224 326Q194 326 179 324T148 317L145 321L262 540L304 523H95V663H456Z" />
<glyph unicode="4" glyph-name="four" horiz-adv-x="553" d="M10 145V146L433 671H434V255H513V145H434V0H288V145H10ZM295 352L218 249L204 255H288V359L295 352Z" />
<glyph unicode="5" glyph-name="five" horiz-adv-x="518" d="M242 -8Q183 -8 127 14T40 67L115 183Q133 161 166 147T231 132Q254 132 274 142T306 172T318 221Q318 253 306 277T270 314T214 328Q183 328 155 320T89 291H88V663H419V523H213V416L196 446Q210 448
223 449T249 450Q319 450 367 419T442 337T468 226Q468 160 438 107T357 23T242 -8Z" />
<glyph unicode="6" glyph-name="six" horiz-adv-x="561" d="M286 -8Q214 -8 156 26T64 126T30 287Q30 346 52 401T114 507T206 602T317 681L414 576Q334 545 283 497T208 396T184 300L148 304Q175 367 217 402T336 437Q384 437 429 410T502 335T531 223Q531 149
496 98T404 19T286 -8ZM280 122Q309 122 331 133T367 167T380 222Q380 253 367 273T331 304T280 315Q252 315 230 305T194 277T180 239V215Q180 191 193 170T229 136T280 122Z" />
<glyph unicode="7" glyph-name="seven" horiz-adv-x="503" d="M488 663L241 0H79L284 540L331 523H40V663H488Z" />
<glyph unicode="8" glyph-name="eight" horiz-adv-x="532" d="M15 215Q15 267 34 303T80 362T131 400Q109 423 94 447T78 517Q78 562 103 597T172 651T267 671Q319 671 362 652T432 599T459 524Q459 474 443 449T402 400Q426 385 452 361T498 302T517 215Q517
157 484 106T395 24T265 -8Q192 -8 136 23T47 106T15 215V215ZM164 221Q164 192 178 168T215 129T266 114Q295 114 319 128T357 167T372 221Q372 250 359 273T323 312T272 328Q244 329 220 315T180 277T164 221V221ZM219 499Q219 479 235 464T270 449Q288 449 304
464T320 499Q320 519 305 534T270 550Q251 550 235 535T219 499V499Z" />
<glyph unicode="9" glyph-name="nine" horiz-adv-x="546" d="M225 207Q177 207 133 234T59 309T30 421Q30 501 65 557T157 642T275 671Q348 671 405 639T497 550T531 422Q531 340 503 275T427 157T321 63T204 -17L107 88Q187 121 248 163T343 252T377 344L413
340Q386 277 344 242T225 207ZM281 329Q323 329 352 356T381 417V440Q381 466 368 489T333 526T281 541Q253 541 230 529T194 492T181 433Q181 399 194 376T230 341T281 329Z" />
<glyph unicode=":" glyph-name="colon" horiz-adv-x="179" d="M15 357Q15 388 37 409T87 430Q112 430 134 409T157 357Q157 324 135 305T87 285Q60 285 38 304T15 357V357ZM15 72Q15 103 37 124T87 145Q112 145 134 124T157 72Q157 39 135 20T87 0Q60 0 38 19T15 72V72Z" />
<glyph unicode=";" glyph-name="semicolon" horiz-adv-x="205" d="M52 327Q52 358 74 379T123 400Q149 400 171 379T193 327Q193 294 171 275T123 255Q97 255 75 274T52 327V327ZM174 88Q152 35 130 -17T86 -122H-26Q-6 -69 13 -17T53 88H174Z" />
<glyph unicode="&lt;" glyph-name="less" horiz-adv-x="555" d="M475 347L298 242L475 137V-14L30 242L475 499V347Z" />
<glyph unicode="=" glyph-name="equal" horiz-adv-x="722" d="M102 412H618V290H102V412ZM102 214H618V92H102V214Z" />
<glyph unicode="&gt;" glyph-name="greater" horiz-adv-x="555" d="M80 138L257 243L80 348V499L525 243L80 -14V-14V138Z" />
<glyph unicode="?" glyph-name="question" horiz-adv-x="464" d="M142 197V250Q142 300 154 333T186 391T226 434Q253 459 274 483T295 548Q295 570 284 585T258 608T227 617Q198 617 179 604T147 569T125 525L10 579Q16 597 31 625T73 681T142 728T242 747Q299
747 344 728T417 668T444 561Q444 506 429 472T392 415T348 368Q331 351 316 331T291 283T282 218V197H142ZM212 -14Q176 -14 153 5T130 57Q130 88 153 109T212 130Q247 130 269 109T292 57Q292 25 270 6T212 -14Z" />
<glyph unicode="@" glyph-name="at" horiz-adv-x="1061" d="M460 -226Q378 -226 302 -202T167 -129T73 -3T38 178Q38 245 58 315T121 451T232 567T395 649T615 680Q715 680 791 652T918 573T996 456T1023 312Q1023 247 1004 190T949 88T864 18T753 -8Q710 -8 677
13T627 70T617 152L641 90Q626 69 596 46T528 5T448 -12Q393 -12 349 11T279 80T253 191Q253 267 285 327T374 423T507 459Q551 459 577 449T620 424T649 390L665 437H799L762 172Q760 155 762 143T771 126T789 120Q807 120 825 133T859 172T884 233T894 312Q894
382 862 440T764 535T595 571Q488 571 413 542T289 467T213 367T175 265T164 182Q164 101 189 44T259 -48T360 -101T481 -118Q538 -118 594 -101T699 -52L755 -131Q715 -164 664 -185T559 -216T460 -226ZM504 102Q531 102 551 109T587 131T617 168L632 275Q627
297 613 312T579 336T531 345Q494 345 465 326T419 276T402 210Q402 180 415 156T451 117T504 102Z" />
<glyph unicode="A" glyph-name="A" horiz-adv-x="696" d="M12 0L344 765H352L684 0H516L304 538L409 610L155 0H12ZM239 266H460L511 144H194L239 266Z" />
<glyph unicode="B" glyph-name="B" horiz-adv-x="647" d="M311 736Q426 736 494 690T562 551Q562 483 529 438T438 370T306 347L283 425Q374 425 444 400T556 329T597 217Q597 157 576 116T518 49T435 12T340 0H95V736H311ZM328 435Q371 435 391 461T412 520Q412
558 387 577T318 596H240V435H328ZM333 135Q365 135 391 143T432 170T447 217Q447 249 429 265T383 288T323 295H240V135H333Z" />
<glyph unicode="C" glyph-name="C" horiz-adv-x="697" d="M647 61Q635 51 603 34T523 4T419 -8Q332 -6 264 23T148 104T75 221T50 362Q50 446 75 516T148 637T262 716T408 744Q482 744 539 724T632 681L575 544Q550 563 509 583T413 604Q371 604 333 587T265 537T218
463T201 370Q201 317 216 273T261 198T330 149T422 132Q481 132 523 151T587 191L647 61Z" />
<glyph unicode="D" glyph-name="D" horiz-adv-x="771" d="M95 0V736H315Q426 736 504 703T629 615T699 492T721 355Q721 273 692 208T611 96T493 25T351 0H95ZM240 140H326Q381 140 426 154T503 197T553 267T571 365Q571 437 548 482T490 553T419 587T358 597H240V140Z" />
<glyph unicode="E" glyph-name="E" horiz-adv-x="666" d="M95 736H597V596H240V439H556V299H240V140H611V0H95V736Z" />
<glyph unicode="F" glyph-name="F" horiz-adv-x="600" d="M95 736H555V596H240V429H513V289H240V0H95V736Z" />
<glyph unicode="G" glyph-name="G" horiz-adv-x="762" d="M692 74Q679 60 651 46T587 19T512 0T440 -8Q350 -8 278 18T155 92T77 205T50 347Q50 448 80 522T163 646T284 720T428 744Q499 744 558 729T658 690L611 555Q593 565 563 575T502 591T447 598Q387 598
341 583T264 538T216 464T200 360Q200 308 218 267T268 196T345 152T444 137Q475 137 501 141T545 156V245H418V385H692V74Z" />
<glyph unicode="H" glyph-name="H" horiz-adv-x="809" d="M714 736V0H569V299H240V0H95V736H240V439H569V736H714Z" />
<glyph unicode="I" glyph-name="I" horiz-adv-x="335" d="M95 736H240V0H95V736Z" />
<glyph unicode="J" glyph-name="J" horiz-adv-x="400" d="M305 155Q305 59 267 -9T162 -113T5 -153V-153V-12Q73 -8 116 30T159 158V736H305V155Z" />
<glyph unicode="K" glyph-name="K" horiz-adv-x="704" d="M242 474L238 437L260 465L500 736H688L384 406L689 0H505L278 314L242 278V0H95V736H242V474Z" />
<glyph unicode="L" glyph-name="L" horiz-adv-x="641" d="M95 736H240V140H586V0H95V736Z" />
<glyph unicode="M" glyph-name="M" horiz-adv-x="948" d="M95 0V766H96L505 186L443 200L851 766H853V0H708V439L717 364L468 10H466L210 364L235 433V0H95Z" />
<glyph unicode="N" glyph-name="N" horiz-adv-x="853" d="M754 -30L196 474L239 450L242 0H95V765H101L647 263L615 277L612 736H758V-30H754Z" />
<glyph unicode="O" glyph-name="O" horiz-adv-x="852" d="M50 367Q50 443 79 511T159 631T279 714T425 744Q502 744 570 714T690 632T772 511T802 367Q802 289 773 221T691 102T570 21T425 -8Q347 -8 279 21T160 101T79 221T50 367ZM200 367Q200 318 217 276T266
201T339 150T430 132Q477 132 517 150T588 200T635 275T652 367Q652 417 635 460T587 535T515 586T426 604Q378 604 337 586T265 536T217 460T200 367Z" />
<glyph unicode="P" glyph-name="P" horiz-adv-x="636" d="M318 736Q409 736 472 706T568 620T601 488Q601 443 588 398T545 315T466 256T344 233H240V0H95V736H318ZM343 374Q376 374 398 385T432 414T450 451T456 484Q456 495 453 513T438 551T405 583T344 596H240V374H343Z"
/>
<glyph unicode="Q" glyph-name="Q" horiz-adv-x="893" d="M615 142H843V0H425L615 142ZM50 367Q50 443 79 511T159 631T279 714T425 744Q502 744 570 714T690 632T772 511T802 367Q802 289 773 221T691 102T570 21T425 -8Q347 -8 279 21T160 101T79 221T50 367ZM200
367Q200 319 217 277T266 202T339 151T430 133Q477 133 517 151T588 201T635 275T652 367Q652 415 635 457T587 532T515 582T426 600Q378 600 337 582T265 532T217 458T200 367Z" />
<glyph unicode="R" glyph-name="R" horiz-adv-x="686" d="M318 736Q387 736 441 719T531 669T587 591T606 488Q606 443 593 398T549 316T468 257T344 234H240V0H95V736H318ZM343 374Q376 374 398 385T432 413T450 448T456 483Q456 495 453 513T438 551T405 583T344
596H240V374H343ZM479 284L661 0H492L306 280L479 284Z" />
<glyph unicode="S" glyph-name="S" horiz-adv-x="583" d="M488 558Q446 581 403 596T321 611Q274 611 247 592T220 535Q220 509 240 489T293 452T361 423Q393 411 424 395T481 354T521 293T536 203Q536 147 507 99T422 22T284 -8Q242 -8 199 0T113 26T32 71L96
184Q122 165 152 151T214 128T271 120Q297 120 323 127T367 153T385 203Q385 225 371 243T332 276T278 302Q244 315 208 332T141 373T90 434T70 524Q70 588 98 635T179 709T299 740Q388 740 443 719T543 669L488 558Z" />
<glyph unicode="T" glyph-name="T" horiz-adv-x="586" d="M45 736H541V596H362V0H217V596H45V736Z" />
<glyph unicode="U" glyph-name="U" horiz-adv-x="756" d="M225 272Q225 237 246 205T301 153T377 133Q422 133 457 153T512 205T533 272V736H676V269Q676 188 636 126T528 28T377 -8V-8Q295 -8 228 27T120 125T80 269V736H225V272Z" />
<glyph unicode="V" glyph-name="V" horiz-adv-x="736" d="M206 736L421 206L337 223L532 736H704L368 -34L32 736H206Z" />
<glyph unicode="W" glyph-name="W" horiz-adv-x="1023" d="M32 731H202L359 269L336 279L473 620L540 421L328 -34L32 731ZM401 731H545L726 284L700 288L835 731H991L707 -32L401 731Z" />
<glyph unicode="X" glyph-name="X" horiz-adv-x="725" d="M35 736H220L700 0H513L35 736ZM25 0L287 412L355 266L205 0H25ZM365 466L517 736H693L440 341L365 466Z" />
<glyph unicode="Y" glyph-name="Y" horiz-adv-x="722" d="M286 229L15 736H194L384 354L341 351L528 736H707L431 229V0H286V229Z" />
<glyph unicode="Z" glyph-name="Z" horiz-adv-x="722" d="M45 0Q45 0 62 27T107 99T171 201T244 318T317 435T381 537T427 609T444 636L460 596H195Q174 596 152 605T114 631T98 668V773H231V759Q231 737 238 737T263 736H672L284 124L276 140H671V0H45Z" />
<glyph unicode="[" glyph-name="bracketleft" horiz-adv-x="374" d="M95 761H329V631H240V-23H329V-152H95V761Z" />
<glyph unicode="\" glyph-name="backslash" horiz-adv-x="430" d="M132 751Q203 558 274 366T416 -19H274Q203 174 132 366T-10 751H132Z" />
<glyph unicode="]" glyph-name="bracketright" horiz-adv-x="374" d="M279 -152H45V-22H134V632H45V761H279V-152Z" />
<glyph unicode="^" glyph-name="asciicircum" horiz-adv-x="479" d="M274 489Q274 489 265 500T246 522T236 534Q236 534 227 523T209 500T199 489H114Q145 535 175 581T236 673V673Q267 627 297 581T359 489H274Z" />
<glyph unicode="_" glyph-name="underscore" horiz-adv-x="612" d="M102 121H510V0H102V121Z" />
<glyph unicode="`" glyph-name="grave" horiz-adv-x="317" d="M30 624H185L247 489H162L30 624Z" />
<glyph unicode="a" glyph-name="a" horiz-adv-x="614" d="M256 -12Q195 -12 146 12T67 88T38 218Q38 292 68 346T147 429T251 459Q316 459 349 438T405 390L399 373L412 437H542V0H402V95L413 65Q411 65 401 54T372 27T324 0T256 -12ZM296 102Q321 102 341 109T376
131T402 168V275Q394 297 378 312T340 336T291 345Q261 345 236 330T195 287T180 225Q180 190 196 162T238 118T296 102Z" />
<glyph unicode="b" glyph-name="b" horiz-adv-x="624" d="M359 -12Q304 -12 267 6T201 55L212 85V0H72V789H211V362V407Q237 429 280 444T378 459Q435 459 482 432T557 354T586 228Q586 154 555 100T471 17T359 -12ZM328 106Q359 106 385 122T428 166T444 229Q444
264 428 291T386 333T328 349Q301 349 278 341T238 317T212 279V172Q224 150 240 136T279 114T328 106Z" />
<glyph unicode="c" glyph-name="c" horiz-adv-x="479" d="M443 39Q414 16 371 2T285 -12Q210 -12 155 15T69 94T38 219Q38 292 71 343T157 422T270 449Q329 449 372 433T447 391L379 301Q365 312 341 323T283 335Q254 335 230 320T192 279T178 219Q178 187 193
160T234 118T297 102Q320 102 339 108T373 127L443 39Z" />
<glyph unicode="d" glyph-name="d" horiz-adv-x="624" d="M250 -12Q189 -12 141 16T66 99T38 227Q38 301 68 353T150 432T268 459Q310 459 348 446T413 406V362V789H552V0H412V85L423 55Q389 27 347 8T250 -12ZM296 106Q324 106 345 113T383 135T412 172V279Q404
301 388 316T348 340T296 349Q265 349 239 334T196 291T180 229Q180 194 196 166T238 122T296 106Z" />
<glyph unicode="e" glyph-name="e" horiz-adv-x="553" d="M287 -12Q207 -12 152 18T67 101T38 223Q38 289 72 342T163 426T290 458Q384 458 444 404T523 246L183 138L152 214L398 297L369 284Q361 310 341 329T279 349Q248 349 225 335T189 294T176 231Q176 190
191 163T232 121T290 107Q313 107 334 115T377 136L439 32Q404 12 364 0T287 -12Z" />
<glyph unicode="f" glyph-name="f" horiz-adv-x="435" d="M114 0V315H40V439H114V591Q114 677 163 731T307 786Q335 786 369 778T430 750L371 649Q361 662 348 666T322 671Q292 671 273 651T254 587V439H386V315H254V0H114Z" />
<glyph unicode="g" glyph-name="g" horiz-adv-x="633" d="M298 -220Q239 -220 199 -206T130 -172T80 -134L162 -38Q185 -59 215 -78T296 -98Q329 -98 357 -87T403 -53T421 2V98L426 73Q410 39 368 14T258 -12Q199 -12 149 18T68 101T38 221Q38 290 70 343T153
428T261 459Q318 459 359 443T422 402L417 389L432 437H561V0Q561 -64 525 -113T430 -191T298 -220ZM179 225Q179 190 195 162T238 118T300 102Q329 102 351 109T391 131T421 168V275Q412 297 394 312T353 336T300 345Q266 345 239 330T195 287T179 225Z" />
<glyph unicode="h" glyph-name="h" horiz-adv-x="594" d="M72 0V789H209V349L208 366Q231 407 273 432T376 458Q438 458 479 422T522 327V0H382V275Q381 304 367 321T318 339Q286 339 262 318T225 261T212 178V0H72Z" />
<glyph unicode="i" glyph-name="i" horiz-adv-x="284" d="M72 437H212V0H72V437ZM69 848Q69 879 93 899T146 919Q174 919 197 899T221 848Q221 817 198 798T146 778Q118 778 94 797T69 848Z" />
<glyph unicode="j" glyph-name="j" horiz-adv-x="295" d="M101 -211L20 -124Q50 -102 66 -70T83 8V437H223V0Q223 -78 195 -129T101 -211ZM78 848Q78 879 102 899T155 919Q183 919 206 899T230 848Q230 817 207 798T155 778Q127 778 103 797T78 848Z" />
<glyph unicode="k" glyph-name="k" horiz-adv-x="546" d="M72 0V789H212V0H72ZM323 297L521 0H358L231 217L323 297ZM170 121L156 254L420 448L505 373L170 121Z" />
<glyph unicode="l" glyph-name="l" horiz-adv-x="284" d="M72 789H212V0H72V789Z" />
<glyph unicode="m" glyph-name="m" horiz-adv-x="863" d="M199 437L210 360L208 366Q234 410 273 434T367 459Q403 459 430 449T477 420T503 369L498 368Q526 409 565 434T648 459Q713 459 751 423T791 328V0H652V270Q651 299 643 317T606 338Q572 338 549 315T514
255T502 179V0H362V270Q361 299 352 317T313 338Q280 338 258 315T224 255T212 181V0H72V437H199Z" />
<glyph unicode="n" glyph-name="n" horiz-adv-x="594" d="M199 437L210 359L208 366Q231 407 273 432T376 458Q438 458 479 422T522 327V0H382V275Q381 304 367 321T318 339Q286 339 262 318T225 261T212 178V0H72V437H199Z" />
<glyph unicode="o" glyph-name="o" horiz-adv-x="571" d="M38 224Q38 291 69 344T158 427T289 458Q364 458 419 428T503 344T533 224Q533 157 504 104T419 19T287 -12Q215 -12 159 16T70 97T38 224ZM179 223Q179 189 193 162T231 118T285 102Q318 102 342 118T379
161T392 223Q392 258 379 285T342 328T285 344Q255 344 231 328T193 285T179 223Z" />
<glyph unicode="p" glyph-name="p" horiz-adv-x="624" d="M346 -12Q307 -12 270 2T207 44L211 85V-210H72V447H192L212 362L201 392Q235 421 277 440T374 459Q435 459 483 431T558 349T586 220Q586 146 555 94T470 15T346 -12ZM318 98Q352 98 380 113T426 155T444
218Q444 255 429 282T387 325T328 341Q300 341 279 334T241 312T212 275V168Q220 147 235 131T271 107T318 98Z" />
<glyph unicode="q" glyph-name="q" horiz-adv-x="624" d="M246 -12Q190 -12 143 15T67 93T38 219Q38 294 70 347T153 430T265 459Q321 459 358 441T423 392L412 362V447H552V-210H413V85L415 40Q389 18 346 3T246 -12ZM296 98Q324 98 347 106T387 131T412 168V275Q400
297 384 311T346 333T296 341Q265 341 239 325T196 281T180 218Q180 183 196 156T238 114T296 98Z" />
<glyph unicode="r" glyph-name="r" horiz-adv-x="410" d="M198 437L211 317L208 335Q227 374 260 401T325 444T375 459L368 319Q319 325 284 303T230 245T211 171V0H72V437H198Z" />
<glyph unicode="s" glyph-name="s" horiz-adv-x="447" d="M214 -9Q160 -9 114 10T35 63L93 140Q125 111 152 99T202 86Q219 86 232 89T254 100T262 120Q262 137 249 147T214 163T169 177Q109 196 83 232T56 312Q56 345 73 378T129 434T229 457Q284 457 322 446T394
410L341 328Q322 343 299 353T255 365Q237 366 225 361T205 348T198 331Q197 312 212 301T252 284T299 270Q331 260 354 243T389 203T402 146Q402 106 382 71T320 13T214 -9Z" />
<glyph unicode="t" glyph-name="t" horiz-adv-x="394" d="M113 629H253V439H359V330H253V0H113V330H45V439H113V629Z" />
<glyph unicode="u" glyph-name="u" horiz-adv-x="584" d="M213 -21Q154 -21 114 15T72 110V437H212V162Q214 133 227 116T271 98Q302 98 324 119T359 176T372 259V437H512V0H385L374 80L376 71Q361 44 338 23T284 -9T213 -21Z" />
<glyph unicode="v" glyph-name="v" horiz-adv-x="534" d="M272 -9L10 437H176L325 135L239 138L368 437H524L276 -9H272Z" />
<glyph unicode="w" glyph-name="w" horiz-adv-x="684" d="M384 437L480 212L454 210L538 437H674L477 -26L337 264L209 -26L10 437H146L252 194L204 201L288 387L265 437H384Z" />
<glyph unicode="x" glyph-name="x" horiz-adv-x="526" d="M270 298L353 437H492L319 197L270 298ZM516 0H347L10 437H182L516 0ZM252 140L154 0H15L188 234L252 140Z" />
<glyph unicode="y" glyph-name="y" horiz-adv-x="534" d="M107 -210L398 437H524L242 -210H107ZM224 -2L10 437H167L332 68L224 -2Z" />
<glyph unicode="z" glyph-name="z" horiz-adv-x="522" d="M140 323Q104 323 77 349T50 419V479H155V465Q155 444 162 441T189 437H466L224 85L198 114H463V0H20L269 363L290 323H140Z" />
<glyph unicode="{" glyph-name="braceleft" horiz-adv-x="401" d="M314 639Q293 639 282 633T266 606T261 539V441Q261 403 250 376T223 331T195 305Q206 297 221 281T249 241T261 188V68Q261 23 265 2T281 -25T314 -31H351V-153H272Q244 -153 217 -152T166 -142T130
-107T116 -33V132Q116 162 107 188T80 232T35 249V249V365Q62 366 80 382T107 425T116 482V640Q116 688 129 713T164 748T215 759T272 761H351V639H314Z" />
<glyph unicode="|" glyph-name="bar" horiz-adv-x="306" d="M88 714H214V-237H88V714Z" />
<glyph unicode="}" glyph-name="braceright" horiz-adv-x="401" d="M87 -31Q108 -31 119 -25T135 2T140 69V167Q140 206 151 233T178 277T206 303Q196 312 180 328T152 367T140 420V540Q140 586 136 606T120 633T87 639H50V761H129Q157 761 184 760T235 750T271
715T285 641V476Q285 454 290 433T305 396T330 369T366 359V359V243Q346 243 331 233T305 207T290 170T285 126V-32Q285 -80 272 -105T237 -140T186 -151T129 -153H50V-31H87Z" />
<glyph unicode="~" glyph-name="asciitilde" horiz-adv-x="451" d="M317 422Q275 422 248 439T197 475Q184 486 171 494T144 503Q128 503 119 491T108 461T107 424H22Q17 471 30 513T75 582T153 609Q183 609 207 593T253 558Q270 544 284 533T313 522Q329 522
335 535T343 567T343 606H428Q437 554 424 512T382 446T317 422Z" />
<glyph unicode="&#xa0;" glyph-name="uni00A0" horiz-adv-x="325" />
<glyph unicode="&#xa1;" glyph-name="exclamdown" horiz-adv-x="204" d="M36 -214H161V352H36V-214ZM102 565Q66 565 43 546T20 495Q20 463 43 442T102 421Q137 421 159 442T182 495Q182 526 160 545T102 565Z" />
<glyph unicode="&#xa2;" glyph-name="cent" horiz-adv-x="479" d="M239 506H323V-68H239V506ZM443 39Q414 16 371 2T285 -12Q210 -12 155 15T69 94T38 219Q38 292 71 343T157 422T270 449Q329 449 372 433T447 391L379 301Q365 312 341 323T283 335Q254 335 230
320T192 279T178 219Q178 187 193 160T234 118T297 102Q320 102 339 108T373 127L443 39Z" />
<glyph unicode="&#xa3;" glyph-name="sterling" horiz-adv-x="672" d="M462 418V278H107V418H462ZM173 560Q173 608 203 648T286 713T411 737Q485 737 539 708T621 627L516 555Q509 563 497 572T465 589T414 597Q382 597 361 588T329 558T318 504V237V217Q318
198 316 181T308 151T290 127L270 140H467Q489 140 500 149T511 179V212L637 213V132Q637 102 628 78T601 37T557 10T495 0H75V140H120Q140 140 151 144T168 163T173 213V560Z" />
<glyph unicode="&#xa4;" glyph-name="currency" horiz-adv-x="506" d="M393 441Q415 403 415 361Q415 339 409 319T392 280L416 256L357 197Q350 203 344 209T331 222Q296 202 252 202Q230 202 211 207T174 221V221L149 196L90 255L114 279Q104 297 98 318T92
361V361Q92 383 97 402T113 439Q107 445 102 451T90 463L149 522L173 498Q192 507 211 513T252 519Q274 519 294 514T332 498V498L356 522L415 463L393 441ZM176 360Q176 339 186 322T214 294T253 283Q275 283 292 293T320 321T331 360Q331 382 321 399T293 427T253
438Q232 438 215 428T187 400T176 360V360Z" />
<glyph unicode="&#xa5;" glyph-name="yen" horiz-adv-x="722" d="M174 315H563V202H174V315ZM175 177H563V64H175V177ZM286 309L15 736H194L384 434L341 431L528 736H707L431 309V0H286V309Z" />
<glyph unicode="&#xa6;" glyph-name="brokenbar" horiz-adv-x="219" d="M51 714H177V357H51V714ZM51 119H177V-238H51V119Z" />
<glyph unicode="&#xa7;" glyph-name="section" horiz-adv-x="579" d="M384 139L329 192Q379 192 420 174T485 120T510 34Q510 -26 481 -75T401 -155T283 -185Q246 -185 206 -179T126 -156T50 -109L122 11Q154 -14 180 -28T230 -49T275 -56Q300 -56 318 -48T347
-25T358 12Q358 34 343 48T303 71T249 88Q218 96 185 109T124 142T79 192T61 261Q61 318 88 352T155 401T236 412L225 360Q167 379 135 407T91 468T79 536Q79 571 90 606T128 671T196 718T300 736Q366 735 416 714T506 658L443 551Q403 585 374 597T315 610Q284
610 266 603T239 584T231 557Q231 536 247 522T290 498T347 480Q377 472 409 460T468 429T512 380T529 306Q529 250 494 203T384 139ZM387 279Q389 297 373 312T335 336T293 347Q254 350 230 335T203 298Q202 277 215 260T249 231T291 213Q314 215 335 223T371
245T387 279Z" />
<glyph unicode="&#xa8;" glyph-name="dieresis" horiz-adv-x="442" d="M50 542Q50 574 72 594T122 615Q147 615 169 595T192 542Q192 510 170 490T122 470Q95 470 73 490T50 542V542ZM250 542Q250 574 272 594T322 615Q347 615 369 595T392 542Q392 510 370 490T322
470Q295 470 273 490T250 542V542Z" />
<glyph unicode="&#xa9;" glyph-name="copyright" horiz-adv-x="880" d="M612 182Q587 155 543 131T439 108Q385 110 341 138T270 212T244 312Q244 373 269 420T340 494T450 521Q472 521 498 517T548 504T588 479L532 372Q516 389 498 394T461 399Q438 399 422
387T397 357T389 317Q389 295 397 277T422 247T463 235Q485 235 508 245T548 277L612 182ZM440 -71Q360 -71 290 -42T165 39T81 160T50 312Q50 395 80 465T165 587T289 667T440 696Q520 696 590 668T715 587T799 465T830 312Q830 230 800 161T715 39T591 -42T440
-71ZM440 41Q517 41 577 76T673 172T709 312Q709 391 674 452T578 548T440 584Q364 584 303 549T206 452T170 312Q170 234 205 173T302 76T440 41Z" />
<glyph unicode="&#xaa;" glyph-name="ordfeminine" horiz-adv-x="389" d="M150 427Q115 427 87 443T42 493T25 579Q25 627 42 662T87 716T147 736Q184 736 203 724T235 697L232 683L239 724H339V434H233V488L239 471Q238 471 228 460T198 438T150 427ZM185 512Q197
512 205 516T221 529T233 550V611Q227 630 215 640T183 651Q161 651 147 632T132 583Q132 563 139 547T158 522T185 512Z" />
<glyph unicode="&#xab;" glyph-name="guillemotleft" horiz-adv-x="609" d="M15 244Q15 244 33 258T81 296T142 346T203 395T250 433T269 448V323Q269 323 255 311T222 284T189 256T175 244Q175 244 189 232T222 204T255 175T269 163V39L15 244ZM265 244Q265 244
283 258T331 296T392 346T453 395T500 433T519 448V323Q519 323 505 311T472 284T439 256T425 244Q425 244 439 232T472 204T505 175T519 163V39L265 244Z" />
<glyph unicode="&#xac;" glyph-name="logicalnot" horiz-adv-x="467" d="M50 329H417V91H272V189H50V329Z" />
<glyph unicode="&#xad;" glyph-name="uni00AD" horiz-adv-x="600" d="M54 290H242V168H54V290Z" />
<glyph unicode="&#xae;" glyph-name="registered" horiz-adv-x="566" d="M283 230Q213 230 154 263T60 353T25 482Q25 555 60 612T154 702T283 735Q354 735 412 702T506 612T541 482Q541 410 506 353T413 263T283 230ZM283 305Q333 305 373 328T436 391T459 482Q459
534 436 574T373 637T283 660Q233 660 193 637T130 574T107 482Q107 431 130 391T193 328T283 305ZM192 606H298Q346 606 367 584T389 524Q389 495 369 468T306 440H267V363H192V606ZM284 497Q299 497 304 504T309 522Q309 531 305 540T284 550H267V497H284ZM347
457L387 363H301L270 455L347 457Z" />
<glyph unicode="&#xaf;" glyph-name="overscore" horiz-adv-x="355" d="M50 556H305V459H50V556Z" />
<glyph unicode="&#xb0;" glyph-name="degree" horiz-adv-x="287" d="M22 572Q22 604 38 630T81 671T141 687Q173 687 199 672T240 630T256 572Q256 540 241 513T199 471T141 455Q108 455 81 470T38 513T22 572V572ZM141 529Q158 529 170 541T183 570Q183 587 171
599T141 612Q124 612 112 600T100 570Q100 553 112 541T141 529V529Z" />
<glyph unicode="&#xb1;" glyph-name="plusminus" horiz-adv-x="535" d="M208 582H335V458H455V337H335V215H208V337H88V458H208V582ZM88 183H455V61H88V183Z" />
<glyph unicode="&#xb2;" glyph-name="uni00B2" horiz-adv-x="408" d="M45 623Q65 653 111 672T205 691Q276 690 320 652T364 548Q364 502 340 463T280 391T206 333T142 287L165 381H378V265H62V346Q83 356 109 372T160 410T201 457T218 509Q218 543 206 559T166
575Q144 575 120 562T85 531L45 623Z" />
<glyph unicode="&#xb3;" glyph-name="uni00B3" horiz-adv-x="376" d="M163 260Q117 260 87 277T40 311L79 392Q87 383 104 367T147 350Q168 350 184 362T200 407Q200 443 182 456T139 470Q125 470 115 468T99 462L92 474L167 600L196 580H57V680H315L212 476L122
503Q136 515 154 524T199 533Q228 533 257 521T306 482T326 413Q326 371 306 336T250 281T163 260Z" />
<glyph unicode="&#xb4;" glyph-name="acute" horiz-adv-x="317" d="M275 624L127 489H42L120 624H275Z" />
<glyph unicode="&#xb5;" glyph-name="uni00B5" horiz-adv-x="584" d="M213 -21Q154 -21 116 17T76 114L212 96V-201H72V110V437H212V162Q214 133 227 116T271 98Q302 98 324 119T359 176T372 259V437H512V0H385L372 87L376 71Q361 44 338 23T284 -9T213 -21Z" />
<glyph unicode="&#xb6;" glyph-name="paragraph" horiz-adv-x="592" d="M205 431Q159 431 121 453T61 514T39 598Q39 645 61 682T121 742T205 765H496V0H372V644H330V0H205V431Z" />
<glyph unicode="&#xb7;" glyph-name="middot" horiz-adv-x="175" d="M15 289Q15 320 37 341T87 362Q112 362 134 341T157 289Q157 256 135 237T87 217Q60 217 38 236T15 289V289Z" />
<glyph unicode="&#xb8;" glyph-name="cedilla" horiz-adv-x="373" d="M93 -136Q103 -148 118 -155T153 -163Q170 -163 188 -154T207 -127Q207 -116 197 -105T154 -94Q138 -94 123 -97T94 -105L75 -39L144 12H251L174 -74L148 -39Q159 -37 169 -36T190 -34Q246
-32 284 -55T323 -125Q323 -163 301 -187T243 -224T167 -236Q123 -236 95 -223T50 -191L93 -136Z" />
<glyph unicode="&#xb9;" glyph-name="uni00B9" horiz-adv-x="283" d="M25 663H223V248H93V538H25V663Z" />
<glyph unicode="&#xba;" glyph-name="ordmasculine" horiz-adv-x="373" d="M25 581Q25 626 45 660T103 715T188 735Q237 735 273 715T328 661T348 581Q348 537 329 502T273 446T187 426Q140 426 103 444T46 498T25 581ZM133 580Q133 563 140 549T159 526T186 518Q203
518 215 526T233 548T240 580Q240 598 234 612T215 634T186 643Q171 643 159 635T140 612T133 580Z" />
<glyph unicode="&#xbb;" glyph-name="guillemotright" horiz-adv-x="609" d="M584 244Q584 244 566 258T518 296T457 346T396 395T349 433T330 448V323Q330 323 344 311T377 284T410 256T424 244Q424 244 410 232T377 204T344 175T330 163V39L584 244ZM334 244Q334
244 316 258T268 296T207 346T146 395T99 433T80 448V323Q80 323 94 311T127 284T160 256T174 244Q174 244 160 232T127 204T94 175T80 163V39L334 244Z" />
<glyph unicode="&#xbc;" glyph-name="onequarter" horiz-adv-x="860" d="M693 698L286 0H156L563 698H693ZM25 663H223V248H93V538H25V663ZM840 172V94H493L491 128L704 422H792V0H672V278L702 286L590 122L572 172H840Z" />
<glyph unicode="&#xbd;" glyph-name="onehalf" horiz-adv-x="928" d="M25 663H223V248H93V538H25V663ZM545 348Q565 378 611 397T705 416Q776 415 820 377T864 273Q864 227 840 188T780 116T706 58T642 12L665 106H878V-10H562V71Q583 81 609 97T660 135T701 182T718
234Q718 268 706 284T666 300Q644 300 620 287T585 256L545 348ZM672 698L265 0H135L542 698H672Z" />
<glyph unicode="&#xbe;" glyph-name="threequarters" horiz-adv-x="905" d="M173 260Q127 260 97 277T50 311L89 392Q97 383 114 367T157 350Q178 350 194 362T210 407Q210 443 192 456T149 470Q135 470 125 468T109 462L102 474L177 600L206 580H67V680H325L222
476L132 503Q146 515 164 524T209 533Q238 533 267 521T316 482T336 413Q336 371 316 336T260 281T173 260ZM728 698L321 0H191L598 698H728ZM855 173V95H508L506 129L719 423H807V1H687V279L717 287L605 123L587 173H855Z" />
<glyph unicode="&#xbf;" glyph-name="questiondown" horiz-adv-x="452" d="M326 342V289Q326 240 314 206T282 149T242 105Q215 80 194 56T173 -9Q173 -30 184 -45T210 -69T241 -78Q270 -78 289 -65T321 -30T343 14L458 -40Q452 -58 437 -86T395 -142T326 -189T226
-208Q170 -207 124 -188T51 -128T24 -22Q24 33 39 67T76 125T120 171Q138 189 153 209T177 256T186 321V342H326ZM256 553Q292 553 315 534T338 482Q338 451 315 430T256 409Q221 409 199 430T176 482Q176 514 198 533T256 553Z" />
<glyph unicode="&#xc0;" glyph-name="Agrave" horiz-adv-x="696" d="M12 0L344 765H352L684 0H516L304 538L409 610L155 0H12ZM239 266H460L511 144H194L239 266ZM162 943H317L379 808H294L162 943Z" />
<glyph unicode="&#xc1;" glyph-name="Aacute" horiz-adv-x="696" d="M12 0L344 765H352L684 0H516L304 538L409 610L155 0H12ZM239 266H460L511 144H194L239 266ZM534 939L386 804H301L379 939H534Z" />
<glyph unicode="&#xc2;" glyph-name="Acircumflex" horiz-adv-x="696" d="M12 0L344 765H352L684 0H516L304 538L409 610L155 0H12ZM239 266H460L511 144H194L239 266ZM401 816L323 890L357 900L278 816H152L337 1000H338L527 816H401Z" />
<glyph unicode="&#xc3;" glyph-name="Atilde" horiz-adv-x="696" d="M12 0L344 765H352L684 0H516L304 538L409 610L155 0H12ZM239 266H460L511 144H194L239 266ZM426 843Q392 843 369 857T327 887Q316 896 306 903T283 910Q270 910 263 900T253 875T253 845H183Q178
884 189 919T226 976T291 998Q316 998 336 984T373 956Q387 944 399 935T423 926Q442 926 445 948T448 995H518Q525 952 514 918T480 863T426 843Z" />
<glyph unicode="&#xc4;" glyph-name="Adieresis" horiz-adv-x="696" d="M12 0L344 765H352L684 0H516L304 538L409 610L155 0H12ZM239 266H460L511 144H194L239 266ZM170 874Q170 906 192 926T242 947Q267 947 289 927T312 874Q312 842 290 822T242 802Q215 802
193 822T170 874V874ZM370 874Q370 906 392 926T442 947Q467 947 489 927T512 874Q512 842 490 822T442 802Q415 802 393 822T370 874V874Z" />
<glyph unicode="&#xc5;" glyph-name="Aring" horiz-adv-x="696" d="M12 0L344 765H352L684 0H516L304 538L409 610L155 0H12ZM239 266H460L511 144H194L239 266ZM240 900Q240 948 271 976T352 1004Q399 1004 431 976T463 900Q463 853 431 824T352 795Q304 795
272 824T240 900ZM313 898Q313 879 323 868T352 857Q370 857 380 868T391 898Q391 919 381 929T352 940Q334 940 324 930T313 898Z" />
<glyph unicode="&#xc6;" glyph-name="AE" horiz-adv-x="967" d="M486 736H898V596H631V437H857V297H631V140H912V0H486V736ZM501 565Q499 554 495 539T490 524L173 0H5L486 736L501 565ZM272 276H503V161H227L272 276Z" />
<glyph unicode="&#xc7;" glyph-name="Ccedilla" horiz-adv-x="697" d="M647 61Q635 51 603 34T523 4T419 -8Q332 -6 264 23T148 104T75 221T50 362Q50 446 75 516T148 637T262 716T408 744Q482 744 539 724T632 681L575 544Q550 563 509 583T413 604Q371 604 333
587T265 537T218 463T201 370Q201 317 216 273T261 198T330 149T422 132Q481 132 523 151T587 191L647 61ZM317 -136Q327 -148 342 -155T377 -163Q394 -163 412 -154T431 -127Q431 -116 421 -105T378 -94Q362 -94 347 -97T318 -105L299 -39L368 12H475L398 -74L372
-39Q383 -37 393 -36T414 -34Q470 -32 508 -55T547 -125Q547 -163 525 -187T467 -224T391 -236Q347 -236 319 -223T274 -191L317 -136Z" />
<glyph unicode="&#xc8;" glyph-name="Egrave" horiz-adv-x="666" d="M95 736H597V596H240V439H556V299H240V140H611V0H95V736ZM160 923H315L377 788H292L160 923Z" />
<glyph unicode="&#xc9;" glyph-name="Eacute" horiz-adv-x="666" d="M95 736H597V596H240V439H556V299H240V140H611V0H95V736ZM532 919L384 784H299L377 919H532Z" />
<glyph unicode="&#xca;" glyph-name="Ecircumflex" horiz-adv-x="666" d="M95 736H597V596H240V439H556V299H240V140H611V0H95V736ZM399 796L321 870L355 880L276 796H150L335 980H336L525 796H399Z" />
<glyph unicode="&#xcb;" glyph-name="Edieresis" horiz-adv-x="666" d="M95 736H597V596H240V439H556V299H240V140H611V0H95V736ZM168 854Q168 886 190 906T240 927Q265 927 287 907T310 854Q310 822 288 802T240 782Q213 782 191 802T168 854V854ZM368 854Q368
886 390 906T440 927Q465 927 487 907T510 854Q510 822 488 802T440 782Q413 782 391 802T368 854V854Z" />
<glyph unicode="&#xcc;" glyph-name="Igrave" horiz-adv-x="335" d="M95 736H240V0H95V736ZM-18 923H137L199 788H114L-18 923Z" />
<glyph unicode="&#xcd;" glyph-name="Iacute" horiz-adv-x="335" d="M95 736H240V0H95V736ZM354 919L206 784H121L199 919H354Z" />
<glyph unicode="&#xce;" glyph-name="Icircumflex" horiz-adv-x="335" d="M95 736H240V0H95V736ZM221 796L143 870L177 880L98 796H-28L157 980H158L347 796H221Z" />
<glyph unicode="&#xcf;" glyph-name="Idieresis" horiz-adv-x="335" d="M95 736H240V0H95V736ZM-10 854Q-10 886 12 906T62 927Q87 927 109 907T132 854Q132 822 110 802T62 782Q35 782 13 802T-10 854V854ZM190 854Q190 886 212 906T262 927Q287 927 309 907T332
854Q332 822 310 802T262 782Q235 782 213 802T190 854V854Z" />
<glyph unicode="&#xd0;" glyph-name="Eth" horiz-adv-x="771" d="M95 0V736H315Q426 736 504 703T629 615T699 492T721 355Q721 273 692 208T611 96T493 25T351 0H95ZM240 140H326Q381 140 426 154T503 197T553 267T571 365Q571 437 548 482T490 553T419 587T358
597H240V140ZM20 685H335V555H20V685Z" />
<glyph unicode="&#xd1;" glyph-name="Ntilde" horiz-adv-x="853" d="M754 -30L196 474L239 450L242 0H95V765H101L647 263L615 277L612 736H758V-30H754ZM485 803Q451 803 428 817T386 847Q375 856 365 863T342 870Q329 870 322 860T312 835T312 805H242Q237 844
248 879T285 936T350 958Q375 958 395 944T432 916Q446 904 458 895T482 886Q501 886 504 908T507 955H577Q584 912 573 878T539 823T485 803Z" />
<glyph unicode="&#xd2;" glyph-name="Ograve" horiz-adv-x="852" d="M50 367Q50 443 79 511T159 631T279 714T425 744Q502 744 570 714T690 632T772 511T802 367Q802 289 773 221T691 102T570 21T425 -8Q347 -8 279 21T160 101T79 221T50 367ZM200 367Q200 318
217 276T266 201T339 150T430 132Q477 132 517 150T588 200T635 275T652 367Q652 417 635 460T587 535T515 586T426 604Q378 604 337 586T265 536T217 460T200 367ZM240 913H395L457 778H372L240 913Z" />
<glyph unicode="&#xd3;" glyph-name="Oacute" horiz-adv-x="852" d="M50 367Q50 443 79 511T159 631T279 714T425 744Q502 744 570 714T690 632T772 511T802 367Q802 289 773 221T691 102T570 21T425 -8Q347 -8 279 21T160 101T79 221T50 367ZM200 367Q200 318
217 276T266 201T339 150T430 132Q477 132 517 150T588 200T635 275T652 367Q652 417 635 460T587 535T515 586T426 604Q378 604 337 586T265 536T217 460T200 367ZM612 909L464 774H379L457 909H612Z" />
<glyph unicode="&#xd4;" glyph-name="Ocircumflex" horiz-adv-x="852" d="M50 367Q50 443 79 511T159 631T279 714T425 744Q502 744 570 714T690 632T772 511T802 367Q802 289 773 221T691 102T570 21T425 -8Q347 -8 279 21T160 101T79 221T50 367ZM200 367Q200
318 217 276T266 201T339 150T430 132Q477 132 517 150T588 200T635 275T652 367Q652 417 635 460T587 535T515 586T426 604Q378 604 337 586T265 536T217 460T200 367ZM479 786L401 860L435 870L356 786H230L415 970H416L605 786H479Z" />
<glyph unicode="&#xd5;" glyph-name="Otilde" horiz-adv-x="852" d="M50 367Q50 443 79 511T159 631T279 714T425 744Q502 744 570 714T690 632T772 511T802 367Q802 289 773 221T691 102T570 21T425 -8Q347 -8 279 21T160 101T79 221T50 367ZM200 367Q200 318
217 276T266 201T339 150T430 132Q477 132 517 150T588 200T635 275T652 367Q652 417 635 460T587 535T515 586T426 604Q378 604 337 586T265 536T217 460T200 367ZM504 813Q470 813 447 827T405 857Q394 866 384 873T361 880Q348 880 341 870T331 845T331 815H261Q256
854 267 889T304 946T369 968Q394 968 414 954T451 926Q465 914 477 905T501 896Q520 896 523 918T526 965H596Q603 922 592 888T558 833T504 813Z" />
<glyph unicode="&#xd6;" glyph-name="Odieresis" horiz-adv-x="852" d="M50 367Q50 443 79 511T159 631T279 714T425 744Q502 744 570 714T690 632T772 511T802 367Q802 289 773 221T691 102T570 21T425 -8Q347 -8 279 21T160 101T79 221T50 367ZM200 367Q200
318 217 276T266 201T339 150T430 132Q477 132 517 150T588 200T635 275T652 367Q652 417 635 460T587 535T515 586T426 604Q378 604 337 586T265 536T217 460T200 367ZM248 844Q248 876 270 896T320 917Q345 917 367 897T390 844Q390 812 368 792T320 772Q293
772 271 792T248 844V844ZM448 844Q448 876 470 896T520 917Q545 917 567 897T590 844Q590 812 568 792T520 772Q493 772 471 792T448 844V844Z" />
<glyph unicode="&#xd7;" glyph-name="multiply" horiz-adv-x="528" d="M287 296Q307 317 326 336T366 376Q392 350 418 322T470 268Q452 250 433 230T395 190Q415 171 434 151T474 109L363 0Q344 20 323 39T282 79Q264 60 244 41T206 2Q178 29 151 55T98 108Q118
128 137 147T177 187L94 269L203 380L287 296Z" />
<glyph unicode="&#xd8;" glyph-name="Oslash" horiz-adv-x="858" d="M771 675L168 -23L76 60L681 759L771 675ZM50 367Q50 443 79 511T159 631T279 714T425 744Q502 744 570 714T690 632T772 511T802 367Q802 289 773 221T691 102T570 21T425 -8Q347 -8 279 21T160
101T79 221T50 367ZM200 367Q200 318 217 276T266 201T339 150T430 132Q477 132 517 150T588 200T635 275T652 367Q652 417 635 460T587 535T515 586T426 604Q378 604 337 586T265 536T217 460T200 367Z" />
<glyph unicode="&#xd9;" glyph-name="Ugrave" horiz-adv-x="756" d="M225 272Q225 237 246 205T301 153T377 133Q422 133 457 153T512 205T533 272V736H676V269Q676 188 636 126T528 28T377 -8V-8Q295 -8 228 27T120 125T80 269V736H225V272ZM192 923H347L409
788H324L192 923Z" />
<glyph unicode="&#xda;" glyph-name="Uacute" horiz-adv-x="756" d="M225 272Q225 237 246 205T301 153T377 133Q422 133 457 153T512 205T533 272V736H676V269Q676 188 636 126T528 28T377 -8V-8Q295 -8 228 27T120 125T80 269V736H225V272ZM564 919L416 784H331L409
919H564Z" />
<glyph unicode="&#xdb;" glyph-name="Ucircumflex" horiz-adv-x="756" d="M225 272Q225 237 246 205T301 153T377 133Q422 133 457 153T512 205T533 272V736H676V269Q676 188 636 126T528 28T377 -8V-8Q295 -8 228 27T120 125T80 269V736H225V272ZM431 796L353
870L387 880L308 796H182L367 980H368L557 796H431Z" />
<glyph unicode="&#xdc;" glyph-name="Udieresis" horiz-adv-x="756" d="M225 272Q225 237 246 205T301 153T377 133Q422 133 457 153T512 205T533 272V736H676V269Q676 188 636 126T528 28T377 -8V-8Q295 -8 228 27T120 125T80 269V736H225V272ZM200 854Q200 886
222 906T272 927Q297 927 319 907T342 854Q342 822 320 802T272 782Q245 782 223 802T200 854V854ZM400 854Q400 886 422 906T472 927Q497 927 519 907T542 854Q542 822 520 802T472 782Q445 782 423 802T400 854V854Z" />
<glyph unicode="&#xdd;" glyph-name="Yacute" horiz-adv-x="722" d="M286 229L15 736H194L384 354L341 351L528 736H707L431 229V0H286V229ZM567 919L419 784H334L412 919H567Z" />
<glyph unicode="&#xde;" glyph-name="Thorn" horiz-adv-x="636" d="M348 616Q416 616 464 599T543 549T587 471T601 368Q601 323 589 278T550 195T474 136T354 113H245V0H95V732H245V616H348ZM338 254Q367 254 388 263T423 287T444 322T451 364Q451 389 442 414T409
458T339 476H245V254H338Z" />
<glyph unicode="&#xdf;" glyph-name="germandbls" horiz-adv-x="626" d="M105 468Q105 531 136 576T219 646T329 670Q397 670 444 651T516 600T541 527Q541 488 526 453T477 398Q508 383 531 359T568 296T581 197Q581 126 557 80T489 12T386 -10Q338 -10 308 3T268
29L322 113Q336 101 347 98T372 94Q399 94 413 108T434 148T440 205Q440 246 430 273T401 314T352 326H346L345 447Q371 447 385 460T400 496Q400 516 392 529T368 549T330 556Q280 556 263 521T245 419V0H105V327H40V441H105V468Z" />
<glyph unicode="&#xe0;" glyph-name="agrave" horiz-adv-x="614" d="M256 -12Q195 -12 146 12T67 88T38 218Q38 292 68 346T147 429T251 459Q316 459 349 438T405 390L399 373L412 437H542V0H402V95L413 65Q411 65 401 54T372 27T324 0T256 -12ZM296 102Q321 102
341 109T376 131T402 168V275Q394 297 378 312T340 336T291 345Q261 345 236 330T195 287T180 225Q180 190 196 162T238 118T296 102ZM151 644H306L368 509H283L151 644Z" />
<glyph unicode="&#xe1;" glyph-name="aacute" horiz-adv-x="614" d="M256 -12Q195 -12 146 12T67 88T38 218Q38 292 68 346T147 429T251 459Q316 459 349 438T405 390L399 373L412 437H542V0H402V95L413 65Q411 65 401 54T372 27T324 0T256 -12ZM296 102Q321 102
341 109T376 131T402 168V275Q394 297 378 312T340 336T291 345Q261 345 236 330T195 287T180 225Q180 190 196 162T238 118T296 102ZM474 644L326 509H241L319 644H474Z" />
<glyph unicode="&#xe2;" glyph-name="acircumflex" horiz-adv-x="614" d="M256 -12Q195 -12 146 12T67 88T38 218Q38 292 68 346T147 429T251 459Q316 459 349 438T405 390L399 373L412 437H542V0H402V95L413 65Q411 65 401 54T372 27T324 0T256 -12ZM296 102Q321
102 341 109T376 131T402 168V275Q394 297 378 312T340 336T291 345Q261 345 236 330T195 287T180 225Q180 190 196 162T238 118T296 102ZM387 509L309 583L343 593L264 509H138L323 693H324L513 509H387Z" />
<glyph unicode="&#xe3;" glyph-name="atilde" horiz-adv-x="614" d="M256 -12Q195 -12 146 12T67 88T38 218Q38 292 68 346T147 429T251 459Q316 459 349 438T405 390L399 373L412 437H542V0H402V95L413 65Q411 65 401 54T372 27T324 0T256 -12ZM296 102Q321 102
341 109T376 131T402 168V275Q394 297 378 312T340 336T291 345Q261 345 236 330T195 287T180 225Q180 190 196 162T238 118T296 102ZM406 486Q372 486 349 500T307 530Q296 539 286 546T263 553Q250 553 243 543T233 518T233 488H163Q158 527 169 562T206 619T271
641Q296 641 316 627T353 599Q367 587 379 578T403 569Q422 569 425 591T428 638H498Q505 595 494 561T460 506T406 486Z" />
<glyph unicode="&#xe4;" glyph-name="adieresis" horiz-adv-x="614" d="M256 -12Q195 -12 146 12T67 88T38 218Q38 292 68 346T147 429T251 459Q316 459 349 438T405 390L399 373L412 437H542V0H402V95L413 65Q411 65 401 54T372 27T324 0T256 -12ZM296 102Q321
102 341 109T376 131T402 168V275Q394 297 378 312T340 336T291 345Q261 345 236 330T195 287T180 225Q180 190 196 162T238 118T296 102ZM154 562Q154 594 176 614T226 635Q251 635 273 615T296 562Q296 530 274 510T226 490Q199 490 177 510T154 562V562ZM354
562Q354 594 376 614T426 635Q451 635 473 615T496 562Q496 530 474 510T426 490Q399 490 377 510T354 562V562Z" />
<glyph unicode="&#xe5;" glyph-name="aring" horiz-adv-x="614" d="M256 -12Q195 -12 146 12T67 88T38 218Q38 292 68 346T147 429T251 459Q316 459 349 438T405 390L399 373L412 437H542V0H402V95L413 65Q411 65 401 54T372 27T324 0T256 -12ZM296 102Q321 102
341 109T376 131T402 168V275Q394 297 378 312T340 336T291 345Q261 345 236 330T195 287T180 225Q180 190 196 162T238 118T296 102ZM201 586Q201 634 232 662T313 690Q360 690 392 662T424 586Q424 539 392 510T313 481Q265 481 233 510T201 586ZM274 584Q274
565 284 554T313 543Q331 543 341 554T352 584Q352 605 342 615T313 626Q295 626 285 616T274 584Z" />
<glyph unicode="&#xe6;" glyph-name="ae" horiz-adv-x="849" d="M210 -11Q151 -11 113 6T57 55T38 128Q38 170 65 200T136 247T229 264Q273 264 315 254T380 230L358 150Q330 164 312 169T262 174Q241 174 225 170T201 156T192 131Q192 109 208 97T250 85Q269
85 287 92T322 111T347 135V173H399V73Q379 46 351 28T288 -1T210 -11ZM334 227V263Q334 296 317 313T280 337T248 344Q208 344 179 323T136 280L66 368Q99 403 148 430T268 458Q322 458 367 441T441 389T469 301V281L334 227ZM583 -12Q503 -12 448 18T363 101T334
223Q334 289 368 342T459 426T586 458Q680 458 740 404T819 246L479 138L448 214L694 297L665 284Q657 310 637 329T575 349Q544 349 521 335T485 294T472 231Q472 190 487 163T528 121T586 107Q609 107 630 115T673 136L735 32Q700 12 660 0T583 -12Z" />
<glyph unicode="&#xe7;" glyph-name="ccedilla" horiz-adv-x="479" d="M443 39Q414 16 371 2T285 -12Q210 -12 155 15T69 94T38 219Q38 292 71 343T157 422T270 449Q329 449 372 433T447 391L379 301Q365 312 341 323T283 335Q254 335 230 320T192 279T178 219Q178
187 193 160T234 118T297 102Q320 102 339 108T373 127L443 39ZM157 -136Q167 -148 182 -155T217 -163Q234 -163 252 -154T271 -127Q271 -116 261 -105T218 -94Q202 -94 187 -97T158 -105L139 -39L208 12H315L238 -74L212 -39Q223 -37 233 -36T254 -34Q310 -32
348 -55T387 -125Q387 -163 365 -187T307 -224T231 -236Q187 -236 159 -223T114 -191L157 -136Z" />
<glyph unicode="&#xe8;" glyph-name="egrave" horiz-adv-x="553" d="M287 -12Q207 -12 152 18T67 101T38 223Q38 289 72 342T163 426T290 458Q384 458 444 404T523 246L183 138L152 214L398 297L369 284Q361 310 341 329T279 349Q248 349 225 335T189 294T176
231Q176 190 191 163T232 121T290 107Q313 107 334 115T377 136L439 32Q404 12 364 0T287 -12ZM114 645H269L331 510H246L114 645Z" />
<glyph unicode="&#xe9;" glyph-name="eacute" horiz-adv-x="553" d="M287 -12Q207 -12 152 18T67 101T38 223Q38 289 72 342T163 426T290 458Q384 458 444 404T523 246L183 138L152 214L398 297L369 284Q361 310 341 329T279 349Q248 349 225 335T189 294T176
231Q176 190 191 163T232 121T290 107Q313 107 334 115T377 136L439 32Q404 12 364 0T287 -12ZM437 645L289 510H204L282 645H437Z" />
<glyph unicode="&#xea;" glyph-name="ecircumflex" horiz-adv-x="553" d="M287 -12Q207 -12 152 18T67 101T38 223Q38 289 72 342T163 426T290 458Q384 458 444 404T523 246L183 138L152 214L398 297L369 284Q361 310 341 329T279 349Q248 349 225 335T189 294T176
231Q176 190 191 163T232 121T290 107Q313 107 334 115T377 136L439 32Q404 12 364 0T287 -12ZM350 510L272 584L306 594L227 510H101L286 694H287L476 510H350Z" />
<glyph unicode="&#xeb;" glyph-name="edieresis" horiz-adv-x="553" d="M287 -12Q207 -12 152 18T67 101T38 223Q38 289 72 342T163 426T290 458Q384 458 444 404T523 246L183 138L152 214L398 297L369 284Q361 310 341 329T279 349Q248 349 225 335T189 294T176
231Q176 190 191 163T232 121T290 107Q313 107 334 115T377 136L439 32Q404 12 364 0T287 -12ZM117 563Q117 595 139 615T189 636Q214 636 236 616T259 563Q259 531 237 511T189 491Q162 491 140 511T117 563V563ZM317 563Q317 595 339 615T389 636Q414 636 436
616T459 563Q459 531 437 511T389 491Q362 491 340 511T317 563V563Z" />
<glyph unicode="&#xec;" glyph-name="igrave" horiz-adv-x="284" d="M72 437H212V0H72V437ZM224 624H379L441 489H356L224 624Z" />
<glyph unicode="&#xed;" glyph-name="iacute" horiz-adv-x="284" d="M72 437H212V0H72V437ZM291 624L143 489H58L136 624H291Z" />
<glyph unicode="&#xee;" glyph-name="icircumflex" horiz-adv-x="284" d="M72 437H212V0H72V437ZM460 489L382 563L416 573L337 489H211L396 673H397L586 489H460Z" />
<glyph unicode="&#xef;" glyph-name="idieresis" horiz-adv-x="284" d="M72 437H212V0H72V437ZM227 542Q227 574 249 594T299 615Q324 615 346 595T369 542Q369 510 347 490T299 470Q272 470 250 490T227 542V542ZM427 542Q427 574 449 594T499 615Q524 615 546
595T569 542Q569 510 547 490T499 470Q472 470 450 490T427 542V542Z" />
<glyph unicode="&#xf0;" glyph-name="eth" horiz-adv-x="571" d="M273 -12Q208 -12 155 16T70 97T38 224Q38 291 66 344T143 427T252 458Q299 458 335 437T395 380T432 304T445 224L392 254Q392 338 378 400T334 511T260 604T155 697L259 789Q319 750 369 693T456
567T513 422T533 270Q533 219 517 169T469 78T388 13T273 -12ZM285 102Q318 102 342 118T379 161T392 223Q392 258 379 285T342 328T285 344Q255 344 231 328T193 285T179 223Q179 189 193 162T231 118T285 102ZM492 667L214 497L169 590L447 760L492 667Z" />
<glyph unicode="&#xf1;" glyph-name="ntilde" horiz-adv-x="594" d="M199 437L210 359L208 366Q231 407 273 432T376 458Q438 458 479 422T522 327V0H382V275Q381 304 367 321T318 339Q286 339 262 318T225 261T212 178V0H72V437H199ZM376 476Q342 476 319 490T277
520Q266 529 256 536T233 543Q220 543 213 533T203 508T203 478H133Q128 517 139 552T176 609T241 631Q266 631 286 617T323 589Q337 577 349 568T373 559Q392 559 395 581T398 628H468Q475 585 464 551T430 496T376 476Z" />
<glyph unicode="&#xf2;" glyph-name="ograve" horiz-adv-x="571" d="M38 224Q38 291 69 344T158 427T289 458Q364 458 419 428T503 344T533 224Q533 157 504 104T419 19T287 -12Q215 -12 159 16T70 97T38 224ZM179 223Q179 189 193 162T231 118T285 102Q318 102
342 118T379 161T392 223Q392 258 379 285T342 328T285 344Q255 344 231 328T193 285T179 223ZM110 644H265L327 509H242L110 644Z" />
<glyph unicode="&#xf3;" glyph-name="oacute" horiz-adv-x="571" d="M38 224Q38 291 69 344T158 427T289 458Q364 458 419 428T503 344T533 224Q533 157 504 104T419 19T287 -12Q215 -12 159 16T70 97T38 224ZM179 223Q179 189 193 162T231 118T285 102Q318 102
342 118T379 161T392 223Q392 258 379 285T342 328T285 344Q255 344 231 328T193 285T179 223ZM433 644L285 509H200L278 644H433Z" />
<glyph unicode="&#xf4;" glyph-name="ocircumflex" horiz-adv-x="571" d="M38 224Q38 291 69 344T158 427T289 458Q364 458 419 428T503 344T533 224Q533 157 504 104T419 19T287 -12Q215 -12 159 16T70 97T38 224ZM179 223Q179 189 193 162T231 118T285 102Q318
102 342 118T379 161T392 223Q392 258 379 285T342 328T285 344Q255 344 231 328T193 285T179 223ZM346 509L268 583L302 593L223 509H97L282 693H283L472 509H346Z" />
<glyph unicode="&#xf5;" glyph-name="otilde" horiz-adv-x="571" d="M38 224Q38 291 69 344T158 427T289 458Q364 458 419 428T503 344T533 224Q533 157 504 104T419 19T287 -12Q215 -12 159 16T70 97T38 224ZM179 223Q179 189 193 162T231 118T285 102Q318 102
342 118T379 161T392 223Q392 258 379 285T342 328T285 344Q255 344 231 328T193 285T179 223ZM365 486Q331 486 308 500T266 530Q255 539 245 546T222 553Q209 553 202 543T192 518T192 488H122Q117 527 128 562T165 619T230 641Q255 641 275 627T312 599Q326
587 338 578T362 569Q381 569 384 591T387 638H457Q464 595 453 561T419 506T365 486Z" />
<glyph unicode="&#xf6;" glyph-name="odieresis" horiz-adv-x="571" d="M38 224Q38 291 69 344T158 427T289 458Q364 458 419 428T503 344T533 224Q533 157 504 104T419 19T287 -12Q215 -12 159 16T70 97T38 224ZM179 223Q179 189 193 162T231 118T285 102Q318
102 342 118T379 161T392 223Q392 258 379 285T342 328T285 344Q255 344 231 328T193 285T179 223ZM113 562Q113 594 135 614T185 635Q210 635 232 615T255 562Q255 530 233 510T185 490Q158 490 136 510T113 562V562ZM313 562Q313 594 335 614T385 635Q410 635
432 615T455 562Q455 530 433 510T385 490Q358 490 336 510T313 562V562Z" />
<glyph unicode="&#xf7;" glyph-name="divide" horiz-adv-x="510" d="M184 429Q184 460 206 481T256 502Q281 502 303 481T326 429Q326 396 304 377T256 357Q229 357 207 376T184 429V429ZM184 114Q184 145 206 166T256 187Q281 187 303 166T326 114Q326 81 304
62T256 42Q229 42 207 61T184 114V114ZM69 329H436V208H69V329Z" />
<glyph unicode="&#xf8;" glyph-name="oslash" horiz-adv-x="546" d="M518 426L109 -37L42 24L448 484L518 426ZM38 224Q38 291 69 344T158 427T289 458Q364 458 419 428T503 344T533 224Q533 157 504 104T419 19T287 -12Q215 -12 159 16T70 97T38 224ZM179 223Q179
189 193 162T231 118T285 102Q318 102 342 118T379 161T392 223Q392 258 379 285T342 328T285 344Q255 344 231 328T193 285T179 223Z" />
<glyph unicode="&#xf9;" glyph-name="ugrave" horiz-adv-x="584" d="M213 -21Q154 -21 114 15T72 110V437H212V162Q214 133 227 116T271 98Q302 98 324 119T359 176T372 259V437H512V0H385L374 80L376 71Q361 44 338 23T284 -9T213 -21ZM118 644H273L335 509H250L118
644Z" />
<glyph unicode="&#xfa;" glyph-name="uacute" horiz-adv-x="584" d="M213 -21Q154 -21 114 15T72 110V437H212V162Q214 133 227 116T271 98Q302 98 324 119T359 176T372 259V437H512V0H385L374 80L376 71Q361 44 338 23T284 -9T213 -21ZM441 644L293 509H208L286
644H441Z" />
<glyph unicode="&#xfb;" glyph-name="ucircumflex" horiz-adv-x="584" d="M213 -21Q154 -21 114 15T72 110V437H212V162Q214 133 227 116T271 98Q302 98 324 119T359 176T372 259V437H512V0H385L374 80L376 71Q361 44 338 23T284 -9T213 -21ZM354 509L276 583L310
593L231 509H105L290 693H291L480 509H354Z" />
<glyph unicode="&#xfc;" glyph-name="udieresis" horiz-adv-x="584" d="M213 -21Q154 -21 114 15T72 110V437H212V162Q214 133 227 116T271 98Q302 98 324 119T359 176T372 259V437H512V0H385L374 80L376 71Q361 44 338 23T284 -9T213 -21ZM121 562Q121 594 143
614T193 635Q218 635 240 615T263 562Q263 530 241 510T193 490Q166 490 144 510T121 562V562ZM321 562Q321 594 343 614T393 635Q418 635 440 615T463 562Q463 530 441 510T393 490Q366 490 344 510T321 562V562Z" />
<glyph unicode="&#xfd;" glyph-name="yacute" horiz-adv-x="534" d="M107 -210L398 437H524L242 -210H107ZM224 -2L10 437H167L332 68L224 -2ZM424 624L276 489H191L269 624H424Z" />
<glyph unicode="&#xfe;" glyph-name="thorn" horiz-adv-x="625" d="M349 -12Q323 -12 299 -6T253 11T214 41V85V-210H75V789H215V362L204 392Q227 411 253 426T310 450T377 459Q438 459 486 431T561 349T589 220Q589 146 558 94T473 15T349 -12ZM321 98Q355 98
383 113T429 156T447 218Q447 253 431 281T389 325T331 341Q303 341 282 334T244 312T215 275V168Q223 147 238 131T274 107T321 98Z" />
<glyph unicode="&#xff;" glyph-name="ydieresis" horiz-adv-x="534" d="M107 -210L398 437H524L242 -210H107ZM224 -2L10 437H167L332 68L224 -2ZM104 542Q104 574 126 594T176 615Q201 615 223 595T246 542Q246 510 224 490T176 470Q149 470 127 490T104 542V542ZM304
542Q304 574 326 594T376 615Q401 615 423 595T446 542Q446 510 424 490T376 470Q349 470 327 490T304 542V542Z" />
<glyph unicode="&#x2013;" glyph-name="endash" horiz-adv-x="519" d="M102 286H409V165H102V286Z" />
<glyph unicode="&#x2014;" glyph-name="emdash" horiz-adv-x="714" d="M101 286H613V165H101V286Z" />
<glyph unicode="&#x2018;" glyph-name="quoteleft" horiz-adv-x="192" d="M100 745L172 717Q150 697 136 659T129 586L22 579Q15 617 24 649T55 705T100 745Z" />
<glyph unicode="&#x2019;" glyph-name="quoteright" horiz-adv-x="197" d="M92 559L20 587Q42 607 56 645T63 718L170 725Q176 697 166 663T136 601T92 559V559Z" />
<glyph unicode="&#x201a;" glyph-name="quotesinglbase" horiz-adv-x="197" d="M92 -73L20 -45Q42 -25 56 13T63 86L170 93Q176 65 166 31T136 -31T92 -73V-73Z" />
<glyph unicode="&#x201c;" glyph-name="quotedblleft" horiz-adv-x="331" d="M239 745L311 717Q289 697 275 659T268 586L161 579Q154 617 163 649T194 705T239 745ZM100 745L172 717Q150 697 136 659T129 586L22 579Q15 617 24 649T55 705T100 745Z" />
<glyph unicode="&#x201d;" glyph-name="quotedblright" horiz-adv-x="334" d="M92 559L20 587Q42 607 56 645T63 718L170 725Q176 697 166 663T136 601T92 559V559ZM234 559L162 587Q184 607 198 645T205 718L312 725Q318 697 308 663T278 601T234 559V559Z" />
<glyph unicode="&#x201e;" glyph-name="quotedblbase" horiz-adv-x="334" d="M92 -62L20 -34Q42 -14 56 24T63 97L170 104Q176 76 166 42T136 -20T92 -62V-62ZM234 -62L162 -34Q184 -14 198 24T205 97L312 104Q318 76 308 42T278 -20T234 -62V-62Z" />
<glyph unicode="&#x2022;" glyph-name="bullet" horiz-adv-x="488" d="M80 306Q80 352 102 390T161 450T244 473Q290 473 327 451T387 390T410 306Q410 260 388 223T328 164T244 142Q199 142 162 163T102 222T80 306V306Z" />
<glyph unicode="&#x2039;" glyph-name="guilsinglleft" horiz-adv-x="359" d="M15 244Q15 244 33 258T81 296T142 346T203 395T250 433T269 448V323Q269 323 255 311T222 284T189 256T175 244Q175 244 189 232T222 204T255 175T269 163V39L15 244Z" />
<glyph unicode="&#x203a;" glyph-name="guilsinglright" horiz-adv-x="349" d="M334 244Q334 244 316 258T268 296T207 346T146 395T99 433T80 448V323Q80 323 94 311T127 284T160 256T174 244Q174 244 160 232T127 204T94 175T80 163V39L334 244Z" />
</font>
</defs>
</svg>
