<?xml version="1.0" standalone="no"?>
<!DOCTYPE svg PUBLIC "-//W3C//DTD SVG 1.1//EN" "http://www.w3.org/Graphics/SVG/1.1/DTD/svg11.dtd">
<svg xmlns="http://www.w3.org/2000/svg">
<defs >
<font id="Mulish" horiz-adv-x="581" ><font-face
    font-family="Mulish ExtraLight"
    units-per-em="1000"
    panose-1="0 0 0 0 0 0 0 0 0 0"
    ascent="1005"
    descent="-250"
    alphabetic="0" />
<glyph unicode=" " glyph-name="space" horiz-adv-x="250" />
<glyph unicode="!" glyph-name="exclam" horiz-adv-x="211" d="M78 162L151 705H204L105 162H78ZM31 0L42 70H111L100 0H31Z" />
<glyph unicode="&quot;" glyph-name="quotedbl" horiz-adv-x="342" d="M118 440L147 705H199L146 440H118ZM258 440L287 705H339L286 440H258Z" />
<glyph unicode="#" glyph-name="numbersign" horiz-adv-x="600" d="M53 0L122 191H13L20 231H136L227 482H80L86 522H241L307 705H349L284 522H467L532 705H576L510 522H619L613 482H496L405 231H553L546 191H391L322 0H278L347 191H165L97 0H53ZM179 231H362L453
482H270L179 231Z" />
<glyph unicode="$" glyph-name="dollar" horiz-adv-x="600" d="M232 -115L251 9L262 -4Q220 -2 177 6T95 31T29 73L54 106Q96 73 146 55T279 37Q367 37 420 76T483 176Q492 232 462 266T353 313L261 329Q204 339 169 364T120 430T115 522Q124 579 158 620T247
685T367 709L360 696L380 820H420L400 696L395 708Q446 707 495 687T580 628L554 594Q520 631 475 649T367 668Q282 668 224 628T155 516Q145 456 172 419T270 370L362 354Q455 338 496 292T525 171Q513 95 447 48T276 -4L292 10L272 -115H232Z" />
<glyph unicode="%" glyph-name="percent" horiz-adv-x="926" d="M237 0H191L721 705H767L237 0ZM242 281Q164 281 124 339T100 507Q115 602 165 657T292 712Q370 712 410 654T433 487Q418 391 369 336T242 281ZM242 318Q301 318 340 363T393 497Q407 582 379 628T291
675Q233 675 195 630T142 497Q129 412 156 365T242 318ZM666 -8Q588 -8 548 50T525 218Q540 313 590 368T716 423Q794 423 834 365T858 198Q842 102 793 47T666 -8ZM667 29Q726 29 764 74T817 208Q831 293 803 339T715 386Q657 386 619 341T566 208Q553 123 581
76T667 29Z" />
<glyph unicode="&amp;" glyph-name="ampersand" horiz-adv-x="655" d="M605 -8Q562 18 530 50T479 110H496Q444 54 379 23T243 -8Q174 -8 129 15T64 80T52 173Q62 235 107 279T228 370L278 401L271 393Q230 449 214 490T206 582Q212 619 233 648T291 695T375 713Q416
713 448 697T498 650T508 577Q503 544 485 514T428 451T321 379L318 396L490 160H484Q516 202 542 266T581 404H623Q607 320 577 250T510 126L503 144Q523 116 556 83T630 25L605 -8ZM245 31Q314 31 370 59T472 142L470 124L285 373L301 369L250 337Q179 293 141
258T94 172Q84 107 122 69T245 31ZM375 674Q323 674 289 647T248 578Q244 549 247 526T264 478T306 413L296 409Q381 459 420 496T466 576Q474 620 449 647T375 674Z" />
<glyph unicode="&apos;" glyph-name="quotesingle" horiz-adv-x="202" d="M118 440L147 705H199L146 440H118Z" />
<glyph unicode="(" glyph-name="parenleft" horiz-adv-x="284" d="M134 -180Q115 -109 105 -39T94 102Q94 216 118 324T184 530T280 705H325Q245 576 192 424T138 100Q138 34 147 -37T172 -180H134Z" />
<glyph unicode=")" glyph-name="parenright" horiz-adv-x="284" d="M7 -180H-38Q42 -51 95 101T149 425Q149 491 141 562T115 705H153Q172 634 182 564T193 423Q193 310 169 201T103 -5T7 -180Z" />
<glyph unicode="*" glyph-name="asterisk" horiz-adv-x="452" d="M168 377L136 400L249 535L90 586L104 623L260 567L270 736H311L294 566L458 623L468 586L302 534L394 400L362 377L278 518L168 377Z" />
<glyph unicode="+" glyph-name="plus" horiz-adv-x="600" d="M247 40L283 267H54L60 306H289L324 528H364L329 306H556L550 267H323L287 40H247Z" />
<glyph unicode="," glyph-name="comma" horiz-adv-x="211" d="M44 -98L21 -74Q46 -50 53 -32T63 6L81 0H30L41 70H110L100 9Q97 -12 91 -30T75 -65T44 -98Z" />
<glyph unicode="-" glyph-name="hyphen" horiz-adv-x="420" d="M76 254L82 292H350L344 254H76Z" />
<glyph unicode="." glyph-name="period" horiz-adv-x="211" d="M31 0L42 70H111L100 0H31Z" />
<glyph unicode="/" glyph-name="slash" horiz-adv-x="259" d="M-27 -52H-69L316 744H358L-27 -52Z" />
<glyph unicode="0" glyph-name="zero" horiz-adv-x="600" d="M266 -8Q145 -8 97 88T77 362Q106 542 180 627T367 713Q488 713 535 618T554 343Q526 164 452 78T266 -8ZM267 33Q363 33 424 108T511 353Q528 462 518 532T469 637T365 672Q268 672 208 598T121 353Q104
245 114 174T163 68T267 33Z" />
<glyph unicode="1" glyph-name="one" horiz-adv-x="600" d="M102 0L108 39H277L377 667H404L204 549L211 596L394 705H425L319 39H478L472 0H102Z" />
<glyph unicode="2" glyph-name="two" horiz-adv-x="600" d="M54 0L59 32L379 325Q436 378 468 423T510 527Q521 598 484 635T367 672Q303 672 249 652T143 589L123 625Q168 665 234 689T364 713Q430 713 475 691T542 627T553 523Q543 459 506 406T402 292L106
25L104 39H507L501 0H54Z" />
<glyph unicode="3" glyph-name="three" horiz-adv-x="600" d="M269 -8Q200 -8 140 14T40 80L64 116Q109 72 160 53T273 33Q358 33 410 69T475 184Q499 339 307 339H208L214 378H311Q391 378 445 419T512 534Q523 601 484 636T365 672Q302 672 248 652T142 587L123
623Q170 667 234 690T367 713Q465 713 516 665T554 527Q545 468 500 420T387 354L388 364Q463 351 496 301T518 174Q505 86 438 39T269 -8Z" />
<glyph unicode="4" glyph-name="four" horiz-adv-x="600" d="M373 0L399 166H44L50 199L492 705H527L447 205H562L556 166H441L415 0H373ZM405 205L477 655H502L98 193L94 205H405Z" />
<glyph unicode="5" glyph-name="five" horiz-adv-x="600" d="M285 -8Q240 -8 199 2T122 32T61 80L82 116Q126 73 177 53T288 33Q372 33 429 77T499 209Q512 290 473 342T350 394Q291 394 242 370T153 294H115L180 705H580L573 666H216L164 336H148Q184 385 238
410T350 435Q418 435 465 407T533 327T542 203Q532 135 497 88T407 17T285 -8Z" />
<glyph unicode="6" glyph-name="six" horiz-adv-x="600" d="M287 -8Q210 -8 156 29T81 145T80 351Q100 475 145 555T257 674T410 713Q468 713 518 692T597 631L571 600Q537 639 497 655T407 672Q295 672 223 593T121 340L103 230H95Q118 324 181 379T340 434Q409
434 457 405T526 324T536 199Q527 139 496 93T412 19T287 -8ZM285 33Q380 33 430 80T493 203Q507 291 464 342T339 393Q254 393 198 343T128 214Q115 134 158 84T285 33Z" />
<glyph unicode="7" glyph-name="seven" horiz-adv-x="600" d="M92 0L555 694L554 666H141L148 705H596L591 674L143 0H92Z" />
<glyph unicode="8" glyph-name="eight" horiz-adv-x="600" d="M266 -8Q144 -8 88 47T46 194Q58 269 109 312T238 365L237 356Q170 371 139 422T117 537Q130 617 193 665T369 713Q441 713 489 689T559 620T571 517Q561 453 517 410T401 352L402 361Q451 352 483
328T528 266T533 177Q519 88 451 40T266 -8ZM269 32Q368 32 423 70T490 185Q503 262 459 299T313 337Q211 337 157 301T90 191Q78 117 121 75T269 32ZM320 377Q409 377 462 412T527 520Q538 594 497 633T366 673Q273 673 222 636T161 534Q151 466 191 422T320 377Z"
/>
<glyph unicode="9" glyph-name="nine" horiz-adv-x="600" d="M223 -8Q165 -8 115 13T36 74L62 105Q96 66 136 50T226 33Q338 33 411 113T512 365L530 475H538Q516 381 453 326T293 271Q225 271 177 300T108 382T97 506Q107 566 138 613T223 686T348 713Q426 713
479 676T552 560T553 354Q534 231 489 151T376 31T223 -8ZM294 312Q380 312 436 362T505 491Q518 571 476 621T350 672Q256 672 204 626T140 502Q127 414 170 363T294 312Z" />
<glyph unicode=":" glyph-name="colon" horiz-adv-x="211" d="M99 430L110 500H179L168 430H99ZM30 0L41 70H110L99 0H30Z" />
<glyph unicode=";" glyph-name="semicolon" horiz-adv-x="211" d="M44 -98L21 -78Q47 -54 55 -34T67 6L76 0H34L45 70H114L105 9Q101 -22 87 -48T44 -98ZM99 430L110 500H179L168 430H99Z" />
<glyph unicode="&lt;" glyph-name="less" horiz-adv-x="600" d="M512 37L54 269L60 305L591 537L584 491L83 273L87 295L519 78L512 37Z" />
<glyph unicode="=" glyph-name="equal" horiz-adv-x="600" d="M70 367L76 406H571L565 367H70ZM39 168L45 207H540L534 168H39Z" />
<glyph unicode="&gt;" glyph-name="greater" horiz-adv-x="600" d="M19 37L26 83L527 300L523 278L91 496L98 537L556 305L550 269L19 37Z" />
<glyph unicode="?" glyph-name="question" horiz-adv-x="433" d="M159 162L162 182Q168 218 181 250T221 317T294 397Q318 420 343 449T384 511T401 582Q401 625 369 648T281 672Q241 672 206 663T137 637L144 683Q177 699 214 706T287 713Q336 713 371 698T426
654T445 587Q445 542 426 503T377 432T319 370Q260 312 233 271T194 184L189 162H159ZM113 0L124 70H193L182 0H113Z" />
<glyph unicode="@" glyph-name="at" horiz-adv-x="973" d="M508 -162Q413 -162 335 -132T199 -44T110 94T79 277Q79 373 112 453T204 591T344 681T518 713Q603 713 675 687T800 611T884 495T914 346Q914 259 887 195T815 95T712 59Q654 59 626 94T608 188L616
169Q590 117 545 88T451 59Q376 59 335 106T293 236Q293 310 321 368T399 459T511 492Q567 492 602 465T647 389H640L656 484H698L651 209Q649 198 648 188T647 168Q647 132 664 114T715 96Q758 96 794 127T852 214T875 346Q875 418 848 478T772 582T658 650T517
674Q432 674 360 646T234 564T151 439T121 277Q121 152 170 63T306 -75T508 -123Q594 -123 662 -95T773 -15L800 -47Q751 -102 676 -132T508 -162ZM452 98Q502 98 541 128T604 210T627 327Q627 391 599 422T511 453Q462 453 422 425T359 348T336 236Q336 169 366
134T452 98Z" />
<glyph unicode="A" glyph-name="A" horiz-adv-x="721" d="M-6 0L409 705H450L647 0H604L547 204L569 195H132L161 204L42 0H-6ZM422 649L176 228L155 234H558L541 228L424 649H422Z" />
<glyph unicode="B" glyph-name="B" horiz-adv-x="672" d="M57 0L169 705H436Q540 705 590 657T627 516Q615 444 568 404T447 349L449 363Q526 356 563 307T589 181Q574 87 508 44T328 0H57ZM105 39H333Q419 39 476 72T545 178Q555 238 537 272T481 322T390 337H152L105
39ZM159 376H372Q465 376 518 412T582 511Q594 589 556 627T437 666H204L159 376Z" />
<glyph unicode="C" glyph-name="C" horiz-adv-x="684" d="M363 -8Q252 -8 185 38T93 167T85 363Q103 475 152 553T276 672T450 713Q524 713 579 691T674 625L651 589Q607 635 560 653T447 672Q316 672 235 589T129 353Q114 257 133 185T210 73T363 33Q424 33 481
54T585 122L607 88Q562 41 497 17T363 -8Z" />
<glyph unicode="D" glyph-name="D" horiz-adv-x="733" d="M57 0L169 705H378Q497 705 569 663T669 539T679 343Q651 170 547 85T271 0H57ZM105 39H273Q431 39 521 116T636 353Q661 510 596 588T372 666H204L105 39Z" />
<glyph unicode="E" glyph-name="E" horiz-adv-x="582" d="M57 0L169 705H597L590 666H204L159 377H523L517 338H153L105 39H491L485 0H57Z" />
<glyph unicode="F" glyph-name="F" horiz-adv-x="554" d="M57 0L169 705H587L580 666H204L159 377H514L508 338H153L99 0H57Z" />
<glyph unicode="G" glyph-name="G" horiz-adv-x="723" d="M372 -8Q256 -8 187 37T93 165T86 363Q104 475 153 553T281 672T460 713Q538 713 590 691T680 629L656 592Q616 634 572 653T457 672Q324 672 239 588T129 352Q105 202 163 118T371 33Q428 33 479 44T578
77L560 38L604 318H410L417 357H651L601 44Q574 28 535 17T454 -1T372 -8Z" />
<glyph unicode="H" glyph-name="H" horiz-adv-x="759" d="M57 0L169 705H211L159 377H640L692 705H734L622 0H580L634 338H153L99 0H57Z" />
<glyph unicode="I" glyph-name="I" horiz-adv-x="236" d="M57 0L169 705H211L99 0H57Z" />
<glyph unicode="J" glyph-name="J" horiz-adv-x="300" d="M1 -186Q-15 -186 -32 -184T-68 -175L-62 -136Q-44 -143 -29 -145T1 -148Q47 -148 77 -118T117 -24L233 705H275L159 -26Q151 -76 131 -112T78 -167T1 -186Z" />
<glyph unicode="K" glyph-name="K" horiz-adv-x="605" d="M57 0L169 705H211L159 377H161L575 705H640L178 343V373L559 0H498L155 338H153L99 0H57Z" />
<glyph unicode="L" glyph-name="L" horiz-adv-x="532" d="M57 0L169 705H211L105 39H483L477 0H57Z" />
<glyph unicode="M" glyph-name="M" horiz-adv-x="848" d="M57 0L169 705H206L401 17H373L787 705H823L711 0H672L777 664H804L402 0H370L179 665H201L96 0H57Z" />
<glyph unicode="N" glyph-name="N" horiz-adv-x="739" d="M57 0L169 705H205L586 42H570L675 705H714L602 0H567L186 663H201L96 0H57Z" />
<glyph unicode="O" glyph-name="O" horiz-adv-x="759" d="M86 363Q104 475 152 553T276 672T447 713Q547 713 610 667T698 537T705 342Q688 231 639 153T515 33T343 -8Q244 -8 181 38T93 167T86 363ZM129 353Q113 254 133 183T208 72T346 33Q476 33 557 117T662
352Q678 450 657 522T583 633T445 672Q315 672 235 589T129 353Z" />
<glyph unicode="P" glyph-name="P" horiz-adv-x="638" d="M57 0L169 705H427Q537 705 588 652T624 501Q615 440 582 399T498 338T380 317H149L99 0H57ZM155 356H374Q463 356 515 393T580 505Q593 584 553 625T424 666H204L155 356Z" />
<glyph unicode="Q" glyph-name="Q" horiz-adv-x="759" d="M501 -191Q477 -171 452 -140T406 -73T371 1L419 12Q438 -40 470 -83T536 -158L501 -191ZM86 363Q104 475 152 553T276 672T447 713Q547 713 610 667T698 537T705 342Q688 231 639 153T515 33T343 -8Q244
-8 181 38T93 167T86 363ZM129 353Q113 254 133 183T208 72T346 33Q476 33 557 117T662 352Q678 450 657 522T583 633T445 672Q315 672 235 589T129 353Z" />
<glyph unicode="R" glyph-name="R" horiz-adv-x="684" d="M57 0L169 705H434Q544 705 595 652T632 504Q623 448 590 409T507 349T397 329L405 337H413Q453 337 480 318T521 252L592 0H547L482 236Q467 290 433 306T337 322H150L99 0H57ZM156 361H390Q475 361 526
400T588 509Q600 586 559 626T428 666H204L156 361Z" />
<glyph unicode="S" glyph-name="S" horiz-adv-x="604" d="M280 -8Q194 -8 131 13T25 67L49 103Q99 69 150 51T280 33Q376 33 432 72T498 174Q508 233 477 268T363 314L277 326Q176 340 135 391T107 522Q116 577 151 620T245 688T379 713Q453 713 510 691T604 634L582
598Q540 635 491 653T375 672Q282 672 222 630T150 517Q140 453 171 416T285 367L372 355Q473 342 513 296T541 169Q533 119 499 79T408 15T280 -8Z" />
<glyph unicode="T" glyph-name="T" horiz-adv-x="590" d="M232 0L337 666H75L82 705H648L641 666H379L274 0H232Z" />
<glyph unicode="U" glyph-name="U" horiz-adv-x="722" d="M328 -8Q238 -8 182 23T103 117T95 270L164 705H206L138 276Q119 154 163 94T331 33Q438 33 504 88T592 276L660 705H702L633 270Q618 172 578 111T474 21T328 -8Z" />
<glyph unicode="V" glyph-name="V" horiz-adv-x="677" d="M274 0L84 705H126L310 24H290L690 705H737L320 0H274Z" />
<glyph unicode="W" glyph-name="W" horiz-adv-x="1104" d="M245 0L114 705H156L282 19H252L604 705H643L767 19H740L1088 705H1134L776 0H732L611 672H631L287 0H245Z" />
<glyph unicode="X" glyph-name="X" horiz-adv-x="636" d="M-18 0L314 367L316 357L112 705H160L345 387H333L616 705H671L358 357L355 367L570 0H522L323 342H345L37 0H-18Z" />
<glyph unicode="Y" glyph-name="Y" horiz-adv-x="587" d="M232 0L284 326L289 288L73 705H119L311 327H296L608 705H658L310 288L326 326L274 0H232Z" />
<glyph unicode="Z" glyph-name="Z" horiz-adv-x="585" d="M2 0L7 31L561 689L557 666H107L114 705H608L603 674L48 16L51 39H512L506 0H2Z" />
<glyph unicode="[" glyph-name="bracketleft" horiz-adv-x="284" d="M41 -180L181 705H351L345 668H217L89 -143H217L211 -180H41Z" />
<glyph unicode="\" glyph-name="backslash" horiz-adv-x="259" d="M192 -52L57 744H97L232 -52H192Z" />
<glyph unicode="]" glyph-name="bracketright" horiz-adv-x="284" d="M-64 -180L-59 -143H69L197 668H70L76 705H245L105 -180H-64Z" />
<glyph unicode="^" glyph-name="asciicircum" horiz-adv-x="600" d="M29 140L341 628H377L535 140H496L346 599H368L74 140H29Z" />
<glyph unicode="_" glyph-name="underscore" horiz-adv-x="505" d="M-41 -33L-36 0H461L456 -33H-41Z" />
<glyph unicode="`" glyph-name="grave" horiz-adv-x="500" d="M329 549L189 749H242L365 549H329Z" />
<glyph unicode="a" glyph-name="a" horiz-adv-x="583" d="M240 -8Q171 -8 125 23T60 114T55 260Q75 380 144 444T311 508Q381 508 426 471T482 369H470L501 500H542Q535 472 528 445T517 392L455 0H413L434 131H448Q420 66 367 29T240 -8ZM244 31Q324 31 381 87T456
250Q473 356 432 412T307 469Q227 469 171 413T97 250Q80 144 119 88T244 31Z" />
<glyph unicode="b" glyph-name="b" horiz-adv-x="583" d="M272 -8Q202 -8 157 29T101 131H111L90 0H48L165 736H207L149 369H135Q163 434 216 471T343 508Q413 508 459 477T523 386T528 240Q509 120 440 56T272 -8ZM276 31Q356 31 412 87T486 250Q503 356 464
412T339 469Q260 469 202 413T127 250Q111 144 151 88T276 31Z" />
<glyph unicode="c" glyph-name="c" horiz-adv-x="487" d="M246 -8Q177 -8 129 23T61 114T55 260Q75 380 143 444T312 508Q360 508 401 492T468 444L445 414Q416 443 382 456T314 469Q229 469 172 413T97 253Q80 145 121 88T247 31Q286 31 327 45T403 94L424 61Q392
28 342 10T246 -8Z" />
<glyph unicode="d" glyph-name="d" horiz-adv-x="583" d="M240 -8Q171 -8 125 23T60 114T55 260Q75 380 144 444T311 508Q381 508 426 471T482 369H472L530 736H572L455 0H413L434 131H448Q420 66 367 29T240 -8ZM244 31Q324 31 381 87T456 250Q473 356 432 412T307
469Q227 469 171 413T97 250Q80 144 119 88T244 31Z" />
<glyph unicode="e" glyph-name="e" horiz-adv-x="541" d="M263 -8Q185 -8 134 24T63 118T56 264Q69 342 104 396T193 479T316 508Q382 508 425 480T486 400T494 279L490 252H81L87 290H474L457 277Q470 369 434 419T312 470Q250 470 205 443T133 370T98 263L96
248Q82 143 125 87T264 31Q311 31 357 46T440 97L462 64Q423 30 371 11T263 -8Z" />
<glyph unicode="f" glyph-name="f" horiz-adv-x="311" d="M68 0L141 464H41L47 500H157L145 489L161 588Q173 661 216 700T329 740Q346 740 364 737T393 728L387 688Q377 693 361 697T325 701Q290 701 265 686T223 643T200 571L187 486L181 500H336L330 464H183L110
0H68Z" />
<glyph unicode="g" glyph-name="g" horiz-adv-x="587" d="M223 -223Q164 -223 114 -206T26 -153L48 -119Q77 -143 104 -157T161 -177T230 -184Q308 -184 355 -142T415 -20L442 151H454Q428 85 372 48T245 11Q176 11 130 44T64 135T57 270Q75 384 144 446T314 508Q386
508 432 471T486 367L478 380L506 500H547Q540 472 533 445T522 392L458 -13Q442 -117 383 -170T223 -223ZM246 50Q329 50 386 105T459 260Q475 359 435 414T312 469Q229 469 172 414T98 260Q82 161 122 106T246 50Z" />
<glyph unicode="h" glyph-name="h" horiz-adv-x="570" d="M48 0L165 736H207L150 379H136Q166 442 220 475T346 508Q439 508 474 456T494 310L445 0H403L452 308Q466 395 438 432T338 469Q256 469 203 420T136 290L90 0H48Z" />
<glyph unicode="i" glyph-name="i" horiz-adv-x="218" d="M48 0L127 500H169L90 0H48ZM137 631L147 694H211L201 631H137Z" />
<glyph unicode="j" glyph-name="j" horiz-adv-x="218" d="M-66 -218Q-76 -218 -94 -216T-124 -207L-117 -167Q-106 -171 -90 -175T-61 -179Q-14 -179 12 -148T48 -51L135 500H177L88 -60Q76 -138 37 -178T-66 -218ZM145 631L155 694H219L209 631H145Z" />
<glyph unicode="k" glyph-name="k" horiz-adv-x="482" d="M48 0L165 736H207L133 269H135L426 500H488L158 241V274L442 0H385L131 245H129L90 0H48Z" />
<glyph unicode="l" glyph-name="l" horiz-adv-x="218" d="M48 0L165 736H207L90 0H48Z" />
<glyph unicode="m" glyph-name="m" horiz-adv-x="860" d="M48 0L110 392Q114 418 116 445T119 500H160L150 380H136Q165 443 213 475T325 508Q390 508 426 475T463 379H451Q476 436 528 472T647 508Q727 508 764 460T784 308L735 0H693L743 314Q756 395 732 432T642
469Q569 469 520 420T458 288L412 0H370L420 314Q433 395 410 432T319 469Q246 469 198 420T136 288L90 0H48Z" />
<glyph unicode="n" glyph-name="n" horiz-adv-x="570" d="M48 0L110 392Q114 418 116 445T119 500H160L150 380L136 379Q166 442 220 475T346 508Q439 508 474 456T494 310L445 0H403L452 308Q466 395 438 432T338 469Q256 469 203 420T136 290L90 0H48Z" />
<glyph unicode="o" glyph-name="o" horiz-adv-x="553" d="M240 -8Q171 -8 125 23T60 114T55 260Q68 340 103 395T192 479T311 508Q381 508 427 477T492 386T497 240Q484 160 448 105T359 21T240 -8ZM244 31Q324 31 381 87T456 250Q473 356 432 412T307 469Q227
469 171 413T97 250Q80 144 119 88T244 31Z" />
<glyph unicode="p" glyph-name="p" horiz-adv-x="583" d="M14 -216L110 392Q114 418 116 445T119 500H160L149 369H135Q163 434 216 471T343 508Q413 508 459 477T523 386T528 240Q509 120 440 56T272 -8Q202 -8 157 29T101 131H111L56 -216H14ZM276 31Q356 31
412 87T486 250Q503 356 464 412T339 469Q260 469 202 413T127 250Q111 144 151 88T276 31Z" />
<glyph unicode="q" glyph-name="q" horiz-adv-x="583" d="M379 -216L434 131H448Q420 66 367 29T240 -8Q171 -8 125 23T60 114T55 260Q75 380 144 444T311 508Q381 508 426 471T482 369H470L501 500H542Q535 472 528 445T517 392L421 -216H379ZM244 31Q324 31
381 87T456 250Q473 356 432 412T307 469Q227 469 171 413T97 250Q80 144 119 88T244 31Z" />
<glyph unicode="r" glyph-name="r" horiz-adv-x="336" d="M46 0L107 386Q112 414 115 443T119 500H160L151 391L141 390Q157 430 186 456T251 495T324 508Q336 508 347 507T369 503L360 464Q351 467 340 468T315 469Q266 469 229 448T168 392T139 320L88 0H46Z" />
<glyph unicode="s" glyph-name="s" horiz-adv-x="492" d="M209 -8Q157 -8 110 8T35 51L57 85Q89 59 128 45T213 31Q279 31 319 56T366 124Q372 162 352 186T281 219L217 230Q142 242 114 281T94 377Q101 418 127 447T195 492T285 508Q339 508 381 492T446 453L423
419Q397 443 362 456T285 469Q221 469 183 442T138 372Q132 333 149 308T213 274L280 262Q357 249 387 213T409 123Q403 85 378 55T309 9T209 -8Z" />
<glyph unicode="t" glyph-name="t" horiz-adv-x="324" d="M203 -8Q135 -8 107 30T91 148L141 464H41L47 500H147L170 643L214 659L189 500H341L335 464H183L135 159Q125 93 140 62T202 31Q222 31 238 35T267 44L261 4Q249 -1 235 -4T203 -8Z" />
<glyph unicode="u" glyph-name="u" horiz-adv-x="561" d="M229 -8Q144 -8 102 39T75 192L124 500H166L118 197Q105 109 132 70T230 31Q309 31 360 81T425 214L470 500H512L433 0H392L411 122H426Q398 60 346 26T229 -8Z" />
<glyph unicode="v" glyph-name="v" horiz-adv-x="520" d="M196 0L63 500H109L233 16H209L486 500H535L244 0H196Z" />
<glyph unicode="w" glyph-name="w" horiz-adv-x="857" d="M178 0L81 500H126L216 14H190L441 500H493L587 14H560L806 500H854L598 0H548L453 491H483L229 0H178Z" />
<glyph unicode="x" glyph-name="x" horiz-adv-x="522" d="M-12 0L247 271V245L82 500H131L271 279H256L465 500H520L279 248V267L450 0H400L252 235H267L43 0H-12Z" />
<glyph unicode="y" glyph-name="y" horiz-adv-x="520" d="M-14 -227L-23 -188Q26 -177 59 -161T118 -118T167 -53L202 7L200 -14L63 500H109L234 16H211L485 500H535L214 -54Q189 -97 164 -126T111 -176T53 -208T-14 -227Z" />
<glyph unicode="z" glyph-name="z" horiz-adv-x="512" d="M11 0L16 30L441 477L439 464H84L90 500H491L486 470L60 22L62 36H430L424 0H11Z" />
<glyph unicode="{" glyph-name="braceleft" horiz-adv-x="322" d="M186 -180Q150 -180 128 -171T99 -142T95 -94L135 162Q141 203 128 222T71 244L50 245L55 281L78 282Q122 284 141 303T167 364L208 619Q215 660 239 682T306 705H390L384 668H303Q280 668 267
656T250 621L209 361Q204 325 187 303T148 271T106 261V265Q126 265 144 255T173 224T177 165L137 -96Q133 -118 141 -130T174 -143H256L250 -180H186Z" />
<glyph unicode="|" glyph-name="bar" horiz-adv-x="248" d="M34 -180L174 705H216L76 -180H34Z" />
<glyph unicode="}" glyph-name="braceright" horiz-adv-x="322" d="M-64 -180L-59 -143H22Q45 -143 58 -131T76 -96L117 164Q123 201 139 222T178 254T220 264V260Q200 260 182 270T154 302T149 360L189 621Q193 644 184 656T152 668H70L76 705H140Q177 705 198
696T228 667T231 619L191 363Q185 322 198 303T255 281L275 280L270 244L248 243Q204 241 185 222T159 161L118 -94Q111 -135 87 -157T20 -180H-64Z" />
<glyph unicode="~" glyph-name="asciitilde" horiz-adv-x="600" d="M423 224Q387 224 355 239T294 270Q266 287 242 299T192 311Q155 311 130 290T87 242L54 261Q81 305 112 327T189 350Q225 350 259 335T321 303Q349 287 372 275T420 263Q458 263 483 284T525
332L558 313Q531 270 500 247T423 224Z" />
<glyph unicode="&#xa0;" glyph-name="uni00A0" horiz-adv-x="250" />
<glyph unicode="&#xa1;" glyph-name="exclamdown" horiz-adv-x="211" d="M10 -180L106 339H133L63 -180H10ZM99 430L110 500H179L168 430H99Z" />
<glyph unicode="&#xa2;" glyph-name="cent" horiz-adv-x="600" d="M238 -115L257 8L265 -6Q174 3 128 66T101 250Q121 365 186 423T343 488L330 468L352 604H392L370 468L365 487Q409 487 449 472T514 426L491 397Q462 425 428 437T360 449Q275 449 218 396T143
243Q132 174 147 127T199 56T293 31Q332 31 373 45T449 91L470 58Q438 27 387 10T284 -8L297 8L278 -115H238Z" />
<glyph unicode="&#xa3;" glyph-name="sterling" horiz-adv-x="600" d="M9 0L14 33Q71 56 107 87T151 167L178 336H62L68 372H184L208 522Q224 619 281 666T433 713Q492 713 538 695T615 638L591 606Q561 638 526 655T432 672Q354 672 309 634T249 514L226 372H425L419
336H220L196 186Q186 122 154 86T76 33L77 39H525L519 0H9Z" />
<glyph unicode="&#xa4;" glyph-name="currency" horiz-adv-x="600" d="M109 -22L74 14L148 90Q124 122 110 162T96 245Q96 289 109 329T148 400L74 476L109 512L183 436Q214 463 253 478T336 493Q379 493 417 479T487 438L558 512L594 476L521 403Q547 370 561
330T576 245Q576 200 562 160T521 88L594 14L558 -22L486 52Q455 26 417 12T336 -3Q293 -3 254 12T183 53L109 -22ZM335 40Q389 40 432 67T501 141T527 245Q527 302 502 348T433 423T335 450Q282 450 239 423T169 349T143 245Q143 188 169 142T238 68T335 40Z"
/>
<glyph unicode="&#xa5;" glyph-name="yen" horiz-adv-x="600" d="M239 0L269 189H66L72 225H275L293 339H90L95 375H274L273 368L77 705H124L322 362H307L614 705H667L365 368L366 375H543L538 339H335L317 225H520L514 189H311L281 0H239Z" />
<glyph unicode="&#xa6;" glyph-name="brokenbar" horiz-adv-x="248" d="M121 372L174 705H216L163 372H121ZM34 -180L87 153H129L76 -180H34Z" />
<glyph unicode="&#xa7;" glyph-name="section" horiz-adv-x="518" d="M184 -188Q114 -188 64 -171T-19 -122L5 -89Q26 -110 52 -123T111 -142T183 -149Q264 -149 309 -107T355 -4Q355 42 334 67T266 122L175 178Q117 214 86 252T54 335Q54 374 76 412T138 478L136
468Q130 484 128 499T125 531Q125 584 154 625T232 689T341 713Q398 713 446 697T527 645L505 613Q480 642 435 658T342 674Q260 674 215 632T169 529Q169 483 189 456T258 399L345 347Q407 310 438 272T469 190Q469 151 448 113T385 47L387 58Q394 43 396 27T399
-6Q399 -59 370 -100T293 -164T184 -188ZM96 340Q96 303 122 274T199 213L276 164Q311 142 337 122T378 76L369 79Q398 102 413 131T428 185Q428 222 401 250T321 312L249 357Q215 379 189 400T147 446L155 445Q126 423 111 395T96 340Z" />
<glyph unicode="&#xa8;" glyph-name="dieresis" horiz-adv-x="500" d="M358 620L367 680H428L419 620H358ZM197 620L206 680H267L258 620H197Z" />
<glyph unicode="&#xa9;" glyph-name="copyright" horiz-adv-x="815" d="M429 -8Q353 -8 287 19T172 96T96 211T68 353Q68 430 95 495T172 609T286 685T429 713Q506 713 571 686T685 610T761 496T789 353Q789 277 762 211T686 96T572 20T429 -8ZM438 137Q344 137
291 197T238 356Q238 454 291 511T438 568Q478 568 516 553T579 511L561 479Q532 507 500 518T437 530Q363 530 321 484T279 355Q279 273 321 224T437 175Q467 175 499 187T561 227L579 194Q554 168 515 153T438 137ZM429 28Q497 28 556 52T659 121T727 225T752
353Q752 422 728 481T659 584T556 652T429 677Q360 677 301 653T198 584T130 481T105 353Q105 284 129 225T198 122T301 53T429 28Z" />
<glyph unicode="&#xaa;" glyph-name="ordfeminine" horiz-adv-x="313" d="M160 413Q127 413 105 425T73 457T67 504Q72 536 92 553T143 578T206 585H294L289 556H203Q111 556 103 504Q99 478 113 461T164 444Q209 444 241 472T282 549L291 606Q297 644 280 663T222
682Q195 682 167 675T116 652L104 681Q130 697 162 705T226 713Q281 713 307 685T323 595L295 418H262L270 471H268Q249 440 222 427T160 413Z" />
<glyph unicode="&#xab;" glyph-name="guillemotleft" horiz-adv-x="398" d="M132 89L31 267L191 447H241L80 261L177 89H132ZM292 89L191 267L351 447H401L240 261L337 89H292Z" />
<glyph unicode="&#xac;" glyph-name="logicalnot" horiz-adv-x="600" d="M493 157L527 370H71L77 409H573L533 157H493Z" />
<glyph unicode="&#xad;" glyph-name="uni00AD" horiz-adv-x="420" d="M76 254L82 292H350L344 254H76Z" />
<glyph unicode="&#xae;" glyph-name="registered" horiz-adv-x="815" d="M429 -8Q353 -8 287 19T172 96T96 211T68 353Q68 430 95 495T172 609T286 685T429 713Q506 713 571 686T685 610T761 496T789 353Q789 277 762 211T686 96T572 20T429 -8ZM429 28Q497 28
556 52T659 121T727 225T752 353Q752 422 728 481T659 584T556 652T429 677Q360 677 301 653T198 584T130 481T105 353Q105 284 129 225T198 122T301 53T429 28ZM294 142V563H456Q521 563 556 532T591 443Q591 386 556 356T455 325L458 334Q487 334 507 322T540
281L597 142H554L498 276Q486 304 465 313T412 323H324L335 332V142H294ZM335 360H451Q501 360 525 380T550 443Q550 485 526 505T451 526H335V360Z" />
<glyph unicode="&#xaf;" glyph-name="overscore" horiz-adv-x="500" d="M170 633L176 671H456L450 633H170Z" />
<glyph unicode="&#xb0;" glyph-name="degree" horiz-adv-x="364" d="M233 426Q193 426 161 445T111 496T92 568Q92 608 110 640T161 691T233 710Q273 710 304 692T353 641T372 568Q372 528 354 496T304 445T233 426ZM233 466Q277 466 303 494T330 568Q330 613
304 641T233 670Q190 670 163 642T135 568Q135 523 162 495T233 466Z" />
<glyph unicode="&#xb1;" glyph-name="plusminus" horiz-adv-x="600" d="M260 117L289 303H60L66 342H296L325 528H365L336 342H559L555 303H329L300 117H260ZM12 0L18 39H513L507 0H12Z" />
<glyph unicode="&#xb2;" glyph-name="uni00B2" horiz-adv-x="380" d="M62 282L67 311L247 472Q285 507 303 534T326 584Q333 629 313 650T251 672Q219 672 185 660T123 621L101 651Q132 680 171 694T251 709Q309 709 343 677T368 583Q364 558 345 525T285 456L118
309L114 319H347L341 282H62Z" />
<glyph unicode="&#xb3;" glyph-name="uni00B3" horiz-adv-x="380" d="M199 279Q151 279 114 294T56 337L78 367Q98 343 129 330T197 316Q238 316 268 335T306 398Q313 441 287 459T210 478H137L143 515H207Q256 515 287 536T326 598Q331 633 311 652T248 672Q214
672 179 659T119 620L98 651Q127 678 167 693T253 709Q313 709 344 679T368 596Q362 558 335 532T272 494L273 500Q312 492 333 465T347 391Q339 339 297 309T199 279Z" />
<glyph unicode="&#xb4;" glyph-name="acute" horiz-adv-x="500" d="M279 549L414 749H469L315 549H279Z" />
<glyph unicode="&#xb5;" glyph-name="uni00B5" horiz-adv-x="561" d="M13 -216L124 500H166L119 194Q106 110 134 71T228 31Q312 31 362 84T425 225L467 500H509L432 0H391L410 121H421Q396 62 346 27T227 -8Q177 -8 141 11T87 67L95 69L55 -216H13Z" />
<glyph unicode="&#xb6;" glyph-name="paragraph" horiz-adv-x="570" d="M179 -180L260 335Q208 335 171 356T114 413T94 494Q94 557 122 604T199 678T313 705H544L404 -180H362L496 667H355L221 -180H179Z" />
<glyph unicode="&#xb7;" glyph-name="middot" horiz-adv-x="214" d="M70 238L81 308H151L140 238H70Z" />
<glyph unicode="&#xb8;" glyph-name="cedilla" horiz-adv-x="500" d="M187 -190Q164 -190 144 -185T110 -172L122 -138Q140 -147 155 -150T194 -154Q222 -154 241 -143T260 -109Q260 -95 251 -87T225 -79Q214 -79 202 -81T172 -89L159 -76L190 20H228L203 -55L185
-53Q198 -50 209 -48T231 -46Q260 -46 280 -61T300 -106Q300 -143 268 -166T187 -190Z" />
<glyph unicode="&#xb9;" glyph-name="uni00B9" horiz-adv-x="380" d="M105 282L111 319H207L262 670L283 668L162 596L169 642L274 705H307L246 319H332L326 282H105Z" />
<glyph unicode="&#xba;" glyph-name="ordmasculine" horiz-adv-x="328" d="M194 413Q133 413 100 453T77 568Q88 639 131 676T232 713Q293 713 327 674T349 558Q338 488 295 451T194 413ZM196 444Q241 444 273 474T314 563Q323 621 301 651T230 682Q185 682 153
652T112 563Q103 505 125 475T196 444Z" />
<glyph unicode="&#xbb;" glyph-name="guillemotright" horiz-adv-x="398" d="M67 89H17L178 275L81 447H126L227 269L67 89ZM225 89H175L336 275L239 447H284L385 269L225 89Z" />
<glyph unicode="&#xbc;" glyph-name="onequarter" horiz-adv-x="880" d="M105 282L111 319H207L262 670L283 668L162 596L169 642L274 705H307L246 319H332L326 282H105ZM229 -8H183L723 713H769L229 -8ZM709 0L724 94H518L523 127L782 423H815L769 131H838L832
94H763L748 0H709ZM730 131L767 369H782L559 116L557 131H730Z" />
<glyph unicode="&#xbd;" glyph-name="onehalf" horiz-adv-x="920" d="M105 282L111 319H207L262 670L283 668L162 596L169 642L274 705H307L246 319H332L326 282H105ZM229 -8H183L723 713H769L229 -8ZM557 0L562 29L742 190Q780 225 798 252T821 302Q828 347 808
368T746 390Q714 390 680 378T618 339L596 369Q627 398 666 412T746 427Q804 427 838 395T863 301Q859 276 840 243T780 174L613 27L609 37H842L836 0H557Z" />
<glyph unicode="&#xbe;" glyph-name="threequarters" horiz-adv-x="880" d="M199 279Q151 279 114 294T56 337L78 367Q98 343 129 330T197 316Q238 316 268 335T306 398Q313 441 287 459T210 478H137L143 515H207Q256 515 287 536T326 598Q331 633 311 652T248
672Q214 672 179 659T119 620L98 651Q127 678 167 693T253 709Q313 709 344 679T368 596Q362 558 335 532T272 494L273 500Q312 492 333 465T347 391Q339 339 297 309T199 279ZM229 -8H183L723 713H769L229 -8ZM709 0L724 94H518L523 127L782 423H815L769 131H838L832
94H763L748 0H709ZM730 131L767 369H782L559 116L557 131H730Z" />
<glyph unicode="&#xbf;" glyph-name="questiondown" horiz-adv-x="433" d="M145 -213Q96 -213 61 -198T6 -154T-13 -87Q-13 -41 6 -3T55 69T113 130Q172 188 200 229T238 316L243 338H273L270 318Q265 283 252 251T211 183T138 103Q114 80 90 51T48 -11T31 -82Q31
-125 63 -148T151 -172Q192 -172 227 -163T295 -137L288 -183Q255 -199 218 -206T145 -213ZM319 500L308 430H239L250 500H319Z" />
<glyph unicode="&#xc0;" glyph-name="Agrave" horiz-adv-x="721" d="M-6 0L409 705H450L647 0H604L547 204L569 195H132L161 204L42 0H-6ZM422 649L176 228L155 234H558L541 228L424 649H422ZM421 765L299 935H354L459 765H421Z" />
<glyph unicode="&#xc1;" glyph-name="Aacute" horiz-adv-x="721" d="M-6 0L409 705H450L647 0H604L547 204L569 195H132L161 204L42 0H-6ZM422 649L176 228L155 234H558L541 228L424 649H422ZM421 765L552 935H609L459 765H421Z" />
<glyph unicode="&#xc2;" glyph-name="Acircumflex" horiz-adv-x="721" d="M-6 0L409 705H450L647 0H604L547 204L569 195H132L161 204L42 0H-6ZM422 649L176 228L155 234H558L541 228L424 649H422ZM286 765L425 935H473L576 765H539L447 897L323 765H286Z" />
<glyph unicode="&#xc3;" glyph-name="Atilde" horiz-adv-x="721" d="M-6 0L409 705H450L647 0H604L547 204L569 195H132L161 204L42 0H-6ZM422 649L176 228L155 234H558L541 228L424 649H422ZM275 792L243 794Q254 852 283 883T357 915Q386 915 411 900T459 868Q479
853 497 842T534 830Q593 830 613 917L645 915Q634 857 605 826T532 794Q503 794 478 809T429 841Q410 856 391 867T354 879Q295 879 275 792Z" />
<glyph unicode="&#xc4;" glyph-name="Adieresis" horiz-adv-x="721" d="M-6 0L409 705H450L647 0H604L547 204L569 195H132L161 204L42 0H-6ZM422 649L176 228L155 234H558L541 228L424 649H422ZM498 820L508 880H569L559 820H498ZM337 820L347 880H408L398 820H337Z" />
<glyph unicode="&#xc5;" glyph-name="Aring" horiz-adv-x="721" d="M-6 0L409 705H450L647 0H604L547 204L569 195H132L161 204L42 0H-6ZM422 649L176 228L155 234H558L541 228L424 649H422ZM457 760Q426 760 401 775T360 815T345 870Q345 901 360 925T400 965T457
980Q489 980 514 965T554 926T569 870Q569 840 554 815T514 775T457 760ZM457 792Q492 792 513 814T535 870Q535 903 514 925T457 948Q423 948 401 926T379 870Q379 837 401 815T457 792Z" />
<glyph unicode="&#xc6;" glyph-name="AE" horiz-adv-x="996" d="M-26 0L509 705H1011L1004 666H585L609 690L589 366L573 377H938L932 338H578L587 348L567 20L563 39H905L899 0H523L535 198L559 195H161L185 207L27 0H-26ZM529 665L197 224L187 234H546L538 225L565
665H529Z" />
<glyph unicode="&#xc7;" glyph-name="Ccedilla" horiz-adv-x="684" d="M363 -8Q252 -8 185 38T93 167T85 363Q103 475 152 553T276 672T450 713Q524 713 579 691T674 625L651 589Q607 635 560 653T447 672Q316 672 235 589T129 353Q114 257 133 185T210 73T363
33Q424 33 481 54T585 122L607 88Q562 41 497 17T363 -8ZM326 -190Q303 -190 283 -185T249 -172L261 -138Q279 -147 294 -150T333 -154Q361 -154 380 -143T399 -109Q399 -95 390 -87T364 -79Q353 -79 341 -81T311 -89L298 -76L329 20H367L342 -55L324 -53Q337 -50
348 -48T370 -46Q399 -46 419 -61T439 -106Q439 -143 407 -166T326 -190Z" />
<glyph unicode="&#xc8;" glyph-name="Egrave" horiz-adv-x="582" d="M57 0L169 705H597L590 666H204L159 377H523L517 338H153L105 39H491L485 0H57ZM386 765L264 935H319L424 765H386Z" />
<glyph unicode="&#xc9;" glyph-name="Eacute" horiz-adv-x="582" d="M57 0L169 705H597L590 666H204L159 377H523L517 338H153L105 39H491L485 0H57ZM386 765L517 935H574L424 765H386Z" />
<glyph unicode="&#xca;" glyph-name="Ecircumflex" horiz-adv-x="582" d="M57 0L169 705H597L590 666H204L159 377H523L517 338H153L105 39H491L485 0H57ZM251 765L390 935H438L541 765H504L412 897L288 765H251Z" />
<glyph unicode="&#xcb;" glyph-name="Edieresis" horiz-adv-x="582" d="M57 0L169 705H597L590 666H204L159 377H523L517 338H153L105 39H491L485 0H57ZM463 820L473 880H534L524 820H463ZM302 820L312 880H373L363 820H302Z" />
<glyph unicode="&#xcc;" glyph-name="Igrave" horiz-adv-x="236" d="M57 0L169 705H211L99 0H57ZM181 765L59 935H114L219 765H181Z" />
<glyph unicode="&#xcd;" glyph-name="Iacute" horiz-adv-x="236" d="M57 0L169 705H211L99 0H57ZM181 765L312 935H369L219 765H181Z" />
<glyph unicode="&#xce;" glyph-name="Icircumflex" horiz-adv-x="236" d="M57 0L169 705H211L99 0H57ZM46 765L185 935H233L336 765H299L207 897L83 765H46Z" />
<glyph unicode="&#xcf;" glyph-name="Idieresis" horiz-adv-x="236" d="M57 0L169 705H211L99 0H57ZM258 820L268 880H329L319 820H258ZM97 820L107 880H168L158 820H97Z" />
<glyph unicode="&#xd0;" glyph-name="Eth" horiz-adv-x="733" d="M57 0L169 705H378Q497 705 569 663T669 539T679 343Q651 170 547 85T271 0H57ZM105 39H273Q431 39 521 116T636 353Q661 510 596 588T372 666H204L105 39ZM23 340L29 377H363L357 340H23Z" />
<glyph unicode="&#xd1;" glyph-name="Ntilde" horiz-adv-x="739" d="M57 0L169 705H205L586 42H570L675 705H714L602 0H567L186 663H201L96 0H57ZM287 792L255 794Q266 852 295 883T369 915Q398 915 423 900T471 868Q491 853 509 842T546 830Q605 830 625 917L657
915Q646 857 617 826T544 794Q515 794 490 809T441 841Q422 856 403 867T366 879Q307 879 287 792Z" />
<glyph unicode="&#xd2;" glyph-name="Ograve" horiz-adv-x="759" d="M86 363Q104 475 152 553T276 672T447 713Q547 713 610 667T698 537T705 342Q688 231 639 153T515 33T343 -8Q244 -8 181 38T93 167T86 363ZM129 353Q113 254 133 183T208 72T346 33Q476 33
557 117T662 352Q678 450 657 522T583 633T445 672Q315 672 235 589T129 353ZM442 765L320 935H375L480 765H442Z" />
<glyph unicode="&#xd3;" glyph-name="Oacute" horiz-adv-x="759" d="M86 363Q104 475 152 553T276 672T447 713Q547 713 610 667T698 537T705 342Q688 231 639 153T515 33T343 -8Q244 -8 181 38T93 167T86 363ZM129 353Q113 254 133 183T208 72T346 33Q476 33
557 117T662 352Q678 450 657 522T583 633T445 672Q315 672 235 589T129 353ZM442 765L573 935H630L480 765H442Z" />
<glyph unicode="&#xd4;" glyph-name="Ocircumflex" horiz-adv-x="759" d="M86 363Q104 475 152 553T276 672T447 713Q547 713 610 667T698 537T705 342Q688 231 639 153T515 33T343 -8Q244 -8 181 38T93 167T86 363ZM129 353Q113 254 133 183T208 72T346 33Q476
33 557 117T662 352Q678 450 657 522T583 633T445 672Q315 672 235 589T129 353ZM307 765L446 935H494L597 765H560L468 897L344 765H307Z" />
<glyph unicode="&#xd5;" glyph-name="Otilde" horiz-adv-x="759" d="M86 363Q104 475 152 553T276 672T447 713Q547 713 610 667T698 537T705 342Q688 231 639 153T515 33T343 -8Q244 -8 181 38T93 167T86 363ZM129 353Q113 254 133 183T208 72T346 33Q476 33
557 117T662 352Q678 450 657 522T583 633T445 672Q315 672 235 589T129 353ZM296 792L264 794Q275 852 304 883T378 915Q407 915 432 900T480 868Q500 853 518 842T555 830Q614 830 634 917L666 915Q655 857 626 826T553 794Q524 794 499 809T450 841Q431 856
412 867T375 879Q316 879 296 792Z" />
<glyph unicode="&#xd6;" glyph-name="Odieresis" horiz-adv-x="759" d="M86 363Q104 475 152 553T276 672T447 713Q547 713 610 667T698 537T705 342Q688 231 639 153T515 33T343 -8Q244 -8 181 38T93 167T86 363ZM129 353Q113 254 133 183T208 72T346 33Q476
33 557 117T662 352Q678 450 657 522T583 633T445 672Q315 672 235 589T129 353ZM519 820L529 880H590L580 820H519ZM358 820L368 880H429L419 820H358Z" />
<glyph unicode="&#xd7;" glyph-name="multiply" horiz-adv-x="600" d="M91 49L63 77L289 286L103 490L131 518L319 312L543 518L571 490L345 282L531 77L503 49L315 255L91 49Z" />
<glyph unicode="&#xd8;" glyph-name="Oslash" horiz-adv-x="759" d="M86 363Q104 475 152 553T276 672T447 713Q547 713 610 667T698 537T705 342Q688 231 639 153T515 33T343 -8Q244 -8 181 38T93 167T86 363ZM129 353Q113 254 133 183T208 72T346 33Q476 33
557 117T662 352Q678 450 657 522T583 633T445 672Q315 672 235 589T129 353ZM198 54L140 -24L110 -2L168 77L185 99L577 629L593 651L652 729L682 707L623 628L607 606L215 76L198 54Z" />
<glyph unicode="&#xd9;" glyph-name="Ugrave" horiz-adv-x="722" d="M328 -8Q238 -8 182 23T103 117T95 270L164 705H206L138 276Q119 154 163 94T331 33Q438 33 504 88T592 276L660 705H702L633 270Q618 172 578 111T474 21T328 -8ZM424 765L302 935H357L462 765H424Z" />
<glyph unicode="&#xda;" glyph-name="Uacute" horiz-adv-x="722" d="M328 -8Q238 -8 182 23T103 117T95 270L164 705H206L138 276Q119 154 163 94T331 33Q438 33 504 88T592 276L660 705H702L633 270Q618 172 578 111T474 21T328 -8ZM424 765L555 935H612L462 765H424Z" />
<glyph unicode="&#xdb;" glyph-name="Ucircumflex" horiz-adv-x="722" d="M328 -8Q238 -8 182 23T103 117T95 270L164 705H206L138 276Q119 154 163 94T331 33Q438 33 504 88T592 276L660 705H702L633 270Q618 172 578 111T474 21T328 -8ZM289 765L428 935H476L579
765H542L450 897L326 765H289Z" />
<glyph unicode="&#xdc;" glyph-name="Udieresis" horiz-adv-x="722" d="M328 -8Q238 -8 182 23T103 117T95 270L164 705H206L138 276Q119 154 163 94T331 33Q438 33 504 88T592 276L660 705H702L633 270Q618 172 578 111T474 21T328 -8ZM501 820L511 880H572L562
820H501ZM340 820L350 880H411L401 820H340Z" />
<glyph unicode="&#xdd;" glyph-name="Yacute" horiz-adv-x="587" d="M232 0L284 326L289 288L73 705H119L311 327H296L608 705H658L310 288L326 326L274 0H232ZM357 765L488 935H545L395 765H357Z" />
<glyph unicode="&#xde;" glyph-name="Thorn" horiz-adv-x="638" d="M57 0L169 705H211L188 559H404Q514 559 565 506T601 355Q592 294 559 253T475 192T357 171H126L99 0H57ZM132 210H351Q440 210 492 247T557 359Q570 438 530 479T401 520H181L132 210Z" />
<glyph unicode="&#xdf;" glyph-name="germandbls" horiz-adv-x="599" d="M48 0L129 510Q147 626 207 683T369 740Q426 740 464 721T519 664T527 573Q521 532 498 494T431 423T316 363L315 374Q406 348 459 314T532 238T544 142Q537 98 511 64T443 11T345 -8Q292
-8 248 7T177 48L197 82Q230 57 266 44T347 31Q411 31 452 62T502 151Q508 191 492 224T423 288T272 346L278 384Q352 412 396 442T461 505T488 575Q498 636 468 669T368 702Q281 702 234 655T171 512L90 0H48Z" />
<glyph unicode="&#xe0;" glyph-name="agrave" horiz-adv-x="583" d="M240 -8Q171 -8 125 23T60 114T55 260Q75 380 144 444T311 508Q381 508 426 471T482 369H470L501 500H542Q535 472 528 445T517 392L455 0H413L434 131H448Q420 66 367 29T240 -8ZM244 31Q324
31 381 87T456 250Q473 356 432 412T307 469Q227 469 171 413T97 250Q80 144 119 88T244 31ZM312 549L172 749H225L348 549H312Z" />
<glyph unicode="&#xe1;" glyph-name="aacute" horiz-adv-x="583" d="M240 -8Q171 -8 125 23T60 114T55 260Q75 380 144 444T311 508Q381 508 426 471T482 369H470L501 500H542Q535 472 528 445T517 392L455 0H413L434 131H448Q420 66 367 29T240 -8ZM244 31Q324
31 381 87T456 250Q473 356 432 412T307 469Q227 469 171 413T97 250Q80 144 119 88T244 31ZM314 549L449 749H504L350 549H314Z" />
<glyph unicode="&#xe2;" glyph-name="acircumflex" horiz-adv-x="583" d="M240 -8Q171 -8 125 23T60 114T55 260Q75 380 144 444T311 508Q381 508 426 471T482 369H470L501 500H542Q535 472 528 445T517 392L455 0H413L434 131H448Q420 66 367 29T240 -8ZM244
31Q324 31 381 87T456 250Q473 356 432 412T307 469Q227 469 171 413T97 250Q80 144 119 88T244 31ZM198 549L329 749H377L464 549H430L351 710L234 549H198Z" />
<glyph unicode="&#xe3;" glyph-name="atilde" horiz-adv-x="583" d="M240 -8Q171 -8 125 23T60 114T55 260Q75 380 144 444T311 508Q381 508 426 471T482 369H470L501 500H542Q535 472 528 445T517 392L455 0H413L434 131H448Q420 66 367 29T240 -8ZM244 31Q324
31 381 87T456 250Q473 356 432 412T307 469Q227 469 171 413T97 250Q80 144 119 88T244 31ZM202 595L170 597Q181 655 207 686T274 718Q300 718 317 703T350 671Q364 656 377 645T407 633Q459 633 478 720L510 718Q500 660 473 629T407 597Q382 597 364 612T330
644Q317 659 304 670T273 682Q221 682 202 595Z" />
<glyph unicode="&#xe4;" glyph-name="adieresis" horiz-adv-x="583" d="M240 -8Q171 -8 125 23T60 114T55 260Q75 380 144 444T311 508Q381 508 426 471T482 369H470L501 500H542Q535 472 528 445T517 392L455 0H413L434 131H448Q420 66 367 29T240 -8ZM244 31Q324
31 381 87T456 250Q473 356 432 412T307 469Q227 469 171 413T97 250Q80 144 119 88T244 31ZM394 620L403 680H464L455 620H394ZM233 620L242 680H303L294 620H233Z" />
<glyph unicode="&#xe5;" glyph-name="aring" horiz-adv-x="583" d="M240 -8Q171 -8 125 23T60 114T55 260Q75 380 144 444T311 508Q381 508 426 471T482 369H470L501 500H542Q535 472 528 445T517 392L455 0H413L434 131H448Q420 66 367 29T240 -8ZM244 31Q324
31 381 87T456 250Q473 356 432 412T307 469Q227 469 171 413T97 250Q80 144 119 88T244 31ZM350 547Q319 547 294 562T253 602T238 657Q238 688 253 712T293 752T350 767Q382 767 407 752T447 713T462 657Q462 627 447 602T407 562T350 547ZM350 579Q385 579 406
601T428 657Q428 690 407 712T350 735Q316 735 294 713T272 657Q272 624 294 602T350 579Z" />
<glyph unicode="&#xe6;" glyph-name="ae" horiz-adv-x="890" d="M210 -8Q157 -8 120 12T65 69T56 151Q66 207 107 236T216 277T375 288H427L422 251H372Q292 251 234 243T142 212T101 144Q93 93 123 62T215 30Q291 30 342 80T406 209L425 328Q437 403 407 436T319
469Q267 469 224 456T133 413L114 447Q143 467 175 480T243 501T315 508Q396 508 432 471T467 366H449Q481 433 540 470T671 508Q735 508 777 480T836 400T844 279L840 252H441L447 290H824L807 277Q820 369 785 419T667 470Q608 470 564 443T493 370T458 263L456
248Q442 143 485 87T619 31Q664 31 708 46T790 97L812 64Q776 30 723 11T618 -8Q528 -8 477 36T415 163H432Q406 83 349 38T210 -8Z" />
<glyph unicode="&#xe7;" glyph-name="ccedilla" horiz-adv-x="487" d="M246 -8Q177 -8 129 23T61 114T55 260Q75 380 143 444T312 508Q360 508 401 492T468 444L445 414Q416 443 382 456T314 469Q229 469 172 413T97 253Q80 145 121 88T247 31Q286 31 327 45T403
94L424 61Q392 28 342 10T246 -8ZM223 -190Q200 -190 180 -185T146 -172L158 -138Q176 -147 191 -150T230 -154Q258 -154 277 -143T296 -109Q296 -95 287 -87T261 -79Q250 -79 238 -81T208 -89L195 -76L226 20H264L239 -55L221 -53Q234 -50 245 -48T267 -46Q296
-46 316 -61T336 -106Q336 -143 304 -166T223 -190Z" />
<glyph unicode="&#xe8;" glyph-name="egrave" horiz-adv-x="541" d="M263 -8Q185 -8 134 24T63 118T56 264Q69 342 104 396T193 479T316 508Q382 508 425 480T486 400T494 279L490 252H81L87 290H474L457 277Q470 369 434 419T312 470Q250 470 205 443T133 370T98
263L96 248Q82 143 125 87T264 31Q311 31 357 46T440 97L462 64Q423 30 371 11T263 -8ZM312 549L172 749H225L348 549H312Z" />
<glyph unicode="&#xe9;" glyph-name="eacute" horiz-adv-x="541" d="M263 -8Q185 -8 134 24T63 118T56 264Q69 342 104 396T193 479T316 508Q382 508 425 480T486 400T494 279L490 252H81L87 290H474L457 277Q470 369 434 419T312 470Q250 470 205 443T133 370T98
263L96 248Q82 143 125 87T264 31Q311 31 357 46T440 97L462 64Q423 30 371 11T263 -8ZM314 549L449 749H504L350 549H314Z" />
<glyph unicode="&#xea;" glyph-name="ecircumflex" horiz-adv-x="541" d="M263 -8Q185 -8 134 24T63 118T56 264Q69 342 104 396T193 479T316 508Q382 508 425 480T486 400T494 279L490 252H81L87 290H474L457 277Q470 369 434 419T312 470Q250 470 205 443T133
370T98 263L96 248Q82 143 125 87T264 31Q311 31 357 46T440 97L462 64Q423 30 371 11T263 -8ZM198 549L329 749H377L464 549H430L351 710L234 549H198Z" />
<glyph unicode="&#xeb;" glyph-name="edieresis" horiz-adv-x="541" d="M263 -8Q185 -8 134 24T63 118T56 264Q69 342 104 396T193 479T316 508Q382 508 425 480T486 400T494 279L490 252H81L87 290H474L457 277Q470 369 434 419T312 470Q250 470 205 443T133
370T98 263L96 248Q82 143 125 87T264 31Q311 31 357 46T440 97L462 64Q423 30 371 11T263 -8ZM394 620L403 680H464L455 620H394ZM233 620L242 680H303L294 620H233Z" />
<glyph unicode="&#xec;" glyph-name="igrave" horiz-adv-x="218" d="M48 0L127 500H169L90 0H48ZM136 549L-4 749H49L172 549H136Z" />
<glyph unicode="&#xed;" glyph-name="iacute" horiz-adv-x="218" d="M48 0L127 500H169L90 0H48ZM138 549L273 749H328L174 549H138Z" />
<glyph unicode="&#xee;" glyph-name="icircumflex" horiz-adv-x="218" d="M48 0L127 500H169L90 0H48ZM22 549L153 749H201L288 549H254L175 710L58 549H22Z" />
<glyph unicode="&#xef;" glyph-name="idieresis" horiz-adv-x="218" d="M48 0L127 500H169L90 0H48ZM218 620L227 680H288L279 620H218ZM57 620L66 680H127L118 620H57Z" />
<glyph unicode="&#xf0;" glyph-name="eth" horiz-adv-x="556" d="M241 -8Q173 -8 126 21T60 106T52 237Q63 304 96 355T183 434T303 463Q381 463 430 421T485 293H466Q482 391 460 478T374 627L392 626L185 547L172 578L359 650L360 638Q333 661 300 678T227 708L242
741Q290 726 329 705T400 656L383 659L504 705L517 674L414 634V643Q456 598 480 539T510 412T504 266Q483 134 416 63T241 -8ZM241 31Q324 31 381 83T453 227Q467 319 427 371T304 423Q221 423 165 373T93 227Q78 134 119 83T241 31Z" />
<glyph unicode="&#xf1;" glyph-name="ntilde" horiz-adv-x="570" d="M48 0L110 392Q114 418 116 445T119 500H160L150 380L136 379Q166 442 220 475T346 508Q439 508 474 456T494 310L445 0H403L452 308Q466 395 438 432T338 469Q256 469 203 420T136 290L90 0H48ZM201
595L169 597Q180 655 206 686T273 718Q299 718 316 703T349 671Q363 656 376 645T406 633Q458 633 477 720L509 718Q499 660 472 629T406 597Q381 597 363 612T329 644Q316 659 303 670T272 682Q220 682 201 595Z" />
<glyph unicode="&#xf2;" glyph-name="ograve" horiz-adv-x="553" d="M240 -8Q171 -8 125 23T60 114T55 260Q68 340 103 395T192 479T311 508Q381 508 427 477T492 386T497 240Q484 160 448 105T359 21T240 -8ZM244 31Q324 31 381 87T456 250Q473 356 432 412T307
469Q227 469 171 413T97 250Q80 144 119 88T244 31ZM304 549L164 749H217L340 549H304Z" />
<glyph unicode="&#xf3;" glyph-name="oacute" horiz-adv-x="553" d="M240 -8Q171 -8 125 23T60 114T55 260Q68 340 103 395T192 479T311 508Q381 508 427 477T492 386T497 240Q484 160 448 105T359 21T240 -8ZM244 31Q324 31 381 87T456 250Q473 356 432 412T307
469Q227 469 171 413T97 250Q80 144 119 88T244 31ZM306 549L441 749H496L342 549H306Z" />
<glyph unicode="&#xf4;" glyph-name="ocircumflex" horiz-adv-x="553" d="M240 -8Q171 -8 125 23T60 114T55 260Q68 340 103 395T192 479T311 508Q381 508 427 477T492 386T497 240Q484 160 448 105T359 21T240 -8ZM244 31Q324 31 381 87T456 250Q473 356 432
412T307 469Q227 469 171 413T97 250Q80 144 119 88T244 31ZM190 549L321 749H369L456 549H422L343 710L226 549H190Z" />
<glyph unicode="&#xf5;" glyph-name="otilde" horiz-adv-x="553" d="M240 -8Q171 -8 125 23T60 114T55 260Q68 340 103 395T192 479T311 508Q381 508 427 477T492 386T497 240Q484 160 448 105T359 21T240 -8ZM244 31Q324 31 381 87T456 250Q473 356 432 412T307
469Q227 469 171 413T97 250Q80 144 119 88T244 31ZM194 595L162 597Q173 655 199 686T266 718Q292 718 309 703T342 671Q356 656 369 645T399 633Q451 633 470 720L502 718Q492 660 465 629T399 597Q374 597 356 612T322 644Q309 659 296 670T265 682Q213 682
194 595Z" />
<glyph unicode="&#xf6;" glyph-name="odieresis" horiz-adv-x="553" d="M240 -8Q171 -8 125 23T60 114T55 260Q68 340 103 395T192 479T311 508Q381 508 427 477T492 386T497 240Q484 160 448 105T359 21T240 -8ZM244 31Q324 31 381 87T456 250Q473 356 432 412T307
469Q227 469 171 413T97 250Q80 144 119 88T244 31ZM386 620L395 680H456L447 620H386ZM225 620L234 680H295L286 620H225Z" />
<glyph unicode="&#xf7;" glyph-name="divide" horiz-adv-x="600" d="M54 267L60 306H556L550 267H54ZM227 51L239 121H309L297 51H227ZM291 452L302 522H372L361 452H291Z" />
<glyph unicode="&#xf8;" glyph-name="oslash" horiz-adv-x="553" d="M240 -8Q171 -8 125 23T60 114T55 260Q68 340 103 395T192 479T311 508Q381 508 427 477T492 386T497 240Q484 160 448 105T359 21T240 -8ZM244 31Q324 31 381 87T456 250Q473 356 432 412T307
469Q227 469 171 413T97 250Q80 144 119 88T244 31ZM102 -24L73 -1L454 523L482 501L102 -24Z" />
<glyph unicode="&#xf9;" glyph-name="ugrave" horiz-adv-x="561" d="M229 -8Q144 -8 102 39T75 192L124 500H166L118 197Q105 109 132 70T230 31Q309 31 360 81T425 214L470 500H512L433 0H392L411 122H426Q398 60 346 26T229 -8ZM308 550L168 750H221L344 550H308Z" />
<glyph unicode="&#xfa;" glyph-name="uacute" horiz-adv-x="561" d="M229 -8Q144 -8 102 39T75 192L124 500H166L118 197Q105 109 132 70T230 31Q309 31 360 81T425 214L470 500H512L433 0H392L411 122H426Q398 60 346 26T229 -8ZM310 550L445 750H500L346 550H310Z" />
<glyph unicode="&#xfb;" glyph-name="ucircumflex" horiz-adv-x="561" d="M229 -8Q144 -8 102 39T75 192L124 500H166L118 197Q105 109 132 70T230 31Q309 31 360 81T425 214L470 500H512L433 0H392L411 122H426Q398 60 346 26T229 -8ZM194 550L325 750H373L460
550H426L347 711L230 550H194Z" />
<glyph unicode="&#xfc;" glyph-name="udieresis" horiz-adv-x="561" d="M229 -8Q144 -8 102 39T75 192L124 500H166L118 197Q105 109 132 70T230 31Q309 31 360 81T425 214L470 500H512L433 0H392L411 122H426Q398 60 346 26T229 -8ZM390 621L399 681H460L451
621H390ZM229 621L238 681H299L290 621H229Z" />
<glyph unicode="&#xfd;" glyph-name="yacute" horiz-adv-x="520" d="M-14 -227L-23 -188Q26 -177 59 -161T118 -118T167 -53L202 7L200 -14L63 500H109L234 16H211L485 500H535L214 -54Q189 -97 164 -126T111 -176T53 -208T-14 -227ZM288 549L423 749H478L324 549H288Z" />
<glyph unicode="&#xfe;" glyph-name="thorn" horiz-adv-x="583" d="M14 -216L165 736H207L149 369H135Q163 434 216 471T343 508Q413 508 459 477T523 386T528 240Q509 120 440 56T272 -8Q202 -8 157 29T101 131H111L56 -216H14ZM276 31Q356 31 412 87T486 250Q503
356 464 412T339 469Q260 469 202 413T127 250Q111 144 151 88T276 31Z" />
<glyph unicode="&#xff;" glyph-name="ydieresis" horiz-adv-x="520" d="M-14 -227L-23 -188Q26 -177 59 -161T118 -118T167 -53L202 7L200 -14L63 500H109L234 16H211L485 500H535L214 -54Q189 -97 164 -126T111 -176T53 -208T-14 -227ZM368 620L377 680H438L429
620H368ZM207 620L216 680H277L268 620H207Z" />
<glyph unicode="&#x2013;" glyph-name="endash" horiz-adv-x="505" d="M1 257L6 290H511L506 257H1Z" />
<glyph unicode="&#x2014;" glyph-name="emdash" horiz-adv-x="1010" d="M1 257L6 290H1016L1011 257H1Z" />
<glyph unicode="&#x2018;" glyph-name="quoteleft" horiz-adv-x="211" d="M116 542L126 603Q130 625 135 643T152 677T182 710L205 686Q180 662 173 644T163 606L145 612H196L185 542H116Z" />
<glyph unicode="&#x2019;" glyph-name="quoteright" horiz-adv-x="211" d="M145 537L122 561Q147 585 154 603T164 641L182 635H131L142 705H211L201 644Q198 623 192 605T176 570T145 537Z" />
<glyph unicode="&#x201a;" glyph-name="quotesinglbase" horiz-adv-x="211" d="M45 -98L22 -74Q47 -50 54 -32T64 6L82 0H31L42 70H111L101 9Q98 -12 92 -30T76 -65T45 -98Z" />
<glyph unicode="&#x201c;" glyph-name="quotedblleft" horiz-adv-x="351" d="M116 542L126 603Q130 625 135 643T152 677T182 710L205 686Q180 662 173 644T163 606L145 612H196L185 542H116ZM256 542L266 603Q270 625 275 643T292 677T322 710L345 686Q320 662
313 644T303 606L285 612H336L325 542H256Z" />
<glyph unicode="&#x201d;" glyph-name="quotedblright" horiz-adv-x="351" d="M145 537L122 561Q147 585 154 603T164 641L182 635H131L142 705H211L201 644Q198 623 192 605T176 570T145 537ZM285 537L262 561Q287 585 294 603T304 641L322 635H271L282 705H351L341
644Q338 623 332 605T316 570T285 537Z" />
<glyph unicode="&#x201e;" glyph-name="quotedblbase" horiz-adv-x="351" d="M45 -98L22 -74Q47 -50 54 -32T64 6L82 0H31L42 70H111L101 9Q98 -12 92 -30T76 -65T45 -98ZM185 -98L162 -74Q187 -50 194 -32T204 6L222 0H171L182 70H251L241 9Q238 -12 232 -30T216
-65T185 -98Z" />
<glyph unicode="&#x2022;" glyph-name="bullet" horiz-adv-x="529" d="M265 88Q216 88 175 111T110 175T85 265Q85 311 108 351T172 417T265 443Q313 443 354 420T421 357T446 265Q446 216 422 176T356 112T265 88Z" />
<glyph unicode="&#x2039;" glyph-name="guilsinglleft" horiz-adv-x="238" d="M132 89L31 267L191 447H241L80 261L177 89H132Z" />
<glyph unicode="&#x203a;" glyph-name="guilsinglright" horiz-adv-x="238" d="M67 89H17L178 275L81 447H126L227 269L67 89Z" />
</font>
</defs>
</svg>
